Классический форум-трекер
canvas not supported
Нас вместе: 4 234 415

Tanita Tikaram - 9 альбомов (1988 - 2005) [FLAC|Lossless]<Pop, Folk>


 
 
RSS
Начать новую тему   Ответить на тему    Торрент-трекер NNM-Club -> Pop -> Зарубежная поп-музыка (Lossless)
Автор Сообщение
eric_s ®
Стаж: 16 лет 3 мес.
Сообщений: 1018
Ratio: 8.961
Поблагодарили: 20621
100%
Tanita Tikaram - 9 альбомов (1988 - 2005)


Год: 1988 - 2005
Жанр: Pop, Folk
Кодек: FLAC
Тип рипа: image + .cue
Битрейт: Lossless
Описание: Танита Тикарам (Tanita Tikaram) — английская поп-фолк певица, автор собственных песен. Родилась 12 августа 1969 года в Мюнстере, Германия, в семье индо-фиджийца — британского военного офицера и малайзийки, выросла в Бейзингстоке, Англия. Её брат — актёр Рамон Тикарам.Стиль Таниты Тикарам составляют её низкий грудной голос, акустические инструменты и необычные поэтические тексты. Она прославилась хитами «Twist in My Sobriety» и «Good Tradition» с её дебютного альбома 1988 года Ancient Heart. Последующие релизы оказались в значительной степени менее успешными, но, несмотря на это, она всё равно продолжала выпускать свои записи. Последний альбом Sentimental датирован 2005 годом.
Альбом Ancient Heart был выпущен, когда певице было всего 19 лет, и получил международное признание, с ним Тикарам отправилась в мировое турне. В 1995 году она выпустила Lovers in the City, который вместе с ней продюсировал Томас Ньюман (Thomas Newman), а в 1998 работала с Марко Сэбью (Marco Sabiu) над поп-ориентированной пластинкой The Cappuccino Songs. В 2005 году Тикарам выпустила свой последний на данный момент альбом, Sentimental. Этот диск, в который вошли две композиции, записанные с Ником Лоу, был тепло воспринят критиками и поклонниками, но вышел только на французском лейбле Naïve Records.

Полная дискография:
1988 — Ancient Heart
1990 — The Sweet Keeper
1991 — Everybody’s Angel
1992 — Eleven Kinds of Loneliness
1995 — Lovers In The City
1996 — The Best Of (сборник лучших песен)
1998 — The Cappuccino Songs
2005 — Sentimental
Треклист:
Альбомы:
1988 - Ancient Heart (WEA Records Ltd. 2292-43877-2)
1988 - Ancient Heart (Japanese Edition 25P2-2464)
1990 - The Sweet Keeper (WEA, CD 70800)
1991 - Everybody's Angel (WEA Records Ltd. 26486-2)
1992 - Eleven Kinds Of Loneliness
1992 - Eleven Kinds of Loneliness (US Collectors Edition 9 26835-2)
1995 - Lovers In The City
1998 - The Cappuccino Songs
2005 - Sentimental
Год выпуска: 1988
Лейбл: WEA Records Ltd. (2292-43877-2)
Продолжительноcть: 00:43:45

Треклиcт:
01. Good Tradition - 2:52
02. Cathedral Song - 2:54
03. Sighing Innocents - 3:34
04. I Love You - 2:45
05. World Outside Your Window - 4:54
06. For All These Years - 5:14
07. Twist In My Sobriety - 4:53
08. Poor Cow - 1:58
09. He Likes The Sun - 5:29
10. Valentine Heart - 4:06
11. Preyed Upon - 5:06
Код: выделить все

Exact Audio Copy V0.99 prebeta 5 from 4. May 2009

EAC extraction logfile from 28. December 2009, 3:26

Tanita Tikaram / Ancient Heart

Used drive  : HL-DT-STDVD-RAM GSA-H55N   Adapter: 0  ID: 2

Read mode               : Secure
Utilize accurate stream : Yes
Defeat audio cache      : Yes
Make use of C2 pointers : No

Read offset correction                      : 102
Overread into Lead-In and Lead-Out          : Yes
Fill up missing offset samples with silence : Yes
Delete leading and trailing silent blocks   : No
Null samples used in CRC calculations       : Yes
Used interface                              : Installed external ASPI interface
Gap handling                                : Appended to previous track

Used output format              : User Defined Encoder
Selected bitrate                : 128 kBit/s
Quality                         : High
Add ID3 tag                     : No
Command line compressor         : G:\Program Files\Exact Audio Copy\Encoder\flac.exe
Additional command line options : -V -8 -T "Genre=%m" -T "Artist=%a" -T "Title=%t" -T "Album=%g" -T "Year=%y" -T "Tracknumber=%n" -T "Comment=EACpb5 -8" %s

TOC of the extracted CD

     Track |   Start  |  Length  | Start sector | End sector
    ---------------------------------------------------------
        1  |  0:00.38 |  2:52.00 |        38    |    12937
        2  |  2:52.38 |  2:54.00 |     12938    |    25987
        3  |  5:46.38 |  3:33.50 |     25988    |    42012
        4  |  9:20.13 |  2:45.12 |     42013    |    54399
        5  | 12:05.25 |  4:54.13 |     54400    |    76462
        6  | 16:59.38 |  5:14.37 |     76463    |   100049
        7  | 22:14.00 |  4:52.63 |    100050    |   122012
        8  | 27:06.63 |  1:57.50 |    122013    |   130837
        9  | 29:04.38 |  5:28.50 |    130838    |   155487
       10  | 34:33.13 |  4:06.25 |    155488    |   173962
       11  | 38:39.38 |  5:06.00 |    173963    |   196912

Track  1

     Filename F:\WAV\01 - Good Tradition.wav

     Pre-gap length  0:00:02.38

     Peak level 71.5 %
     Track quality 99.9 %
     Test CRC 6C47D199
     Copy CRC 6C47D199
     Track not present in AccurateRip database
     Copy OK

Track  2

     Filename F:\WAV\02 - Cathedral Song.wav

     Pre-gap length  0:00:01.50

     Peak level 62.7 %
     Track quality 99.9 %
     Test CRC 6B85FEA7
     Copy CRC 6B85FEA7
     Track not present in AccurateRip database
     Copy OK

Track  3

     Filename F:\WAV\03 - Sighing Innocents.wav

     Pre-gap length  0:00:02.00

     Peak level 62.7 %
     Track quality 100.0 %
     Test CRC AD40E130
     Copy CRC AD40E130
     Track not present in AccurateRip database
     Copy OK

Track  4

     Filename F:\WAV\04 - I Love You.wav

     Pre-gap length  0:00:01.50

     Peak level 51.9 %
     Track quality 100.0 %
     Test CRC 31150F64
     Copy CRC 31150F64
     Track not present in AccurateRip database
     Copy OK

Track  5

     Filename F:\WAV\05 - World Outside Your Window.wav

     Pre-gap length  0:00:00.12

     Peak level 64.7 %
     Track quality 99.9 %
     Test CRC 8AE946E7
     Copy CRC 8AE946E7
     Track not present in AccurateRip database
     Copy OK

Track  6

     Filename F:\WAV\06 - For All These Years.wav

     Pre-gap length  0:00:02.00

     Peak level 58.8 %
     Track quality 100.0 %
     Test CRC 24DF61A5
     Copy CRC 24DF61A5
     Track not present in AccurateRip database
     Copy OK

Track  7

     Filename F:\WAV\07 - Twist In My Sobriety.wav

     Pre-gap length  0:00:01.12

     Peak level 77.9 %
     Track quality 100.0 %
     Test CRC B5C642E2
     Copy CRC B5C642E2
     Track not present in AccurateRip database
     Copy OK

Track  8

     Filename F:\WAV\08 - Poor Cow.wav

     Pre-gap length  0:00:01.25

     Peak level 53.9 %
     Track quality 100.0 %
     Test CRC CC29C5AD
     Copy CRC CC29C5AD
     Track not present in AccurateRip database
     Copy OK

Track  9

     Filename F:\WAV\09 - He Likes The Sun.wav

     Pre-gap length  0:00:01.00

     Peak level 69.9 %
     Track quality 100.0 %
     Test CRC 4077699F
     Copy CRC 4077699F
     Track not present in AccurateRip database
     Copy OK

Track 10

     Filename F:\WAV\10 - Valentine Heart.wav

     Pre-gap length  0:00:02.50

     Peak level 55.8 %
     Track quality 100.0 %
     Test CRC 05A292EE
     Copy CRC 05A292EE
     Track not present in AccurateRip database
     Copy OK

Track 11

     Filename F:\WAV\11 - Preyed Upon.wav

     Pre-gap length  0:00:02.00

     Peak level 66.3 %
     Track quality 100.0 %
     Test CRC 198EDF51
     Copy CRC 198EDF51
     Track not present in AccurateRip database
     Copy OK

None of the tracks are present in the AccurateRip database

No errors occurred

End of status report
потрековый:
Код: выделить все

-----------------------

DON'T MODIFY THIS FILE

-----------------------

PERFORMER: auCDtect Task Manager, ver. 1.5.1RC6 build 1.5.1.7
Copyright (c) 2008-2010 y-soft. All rights reserved
http://y-soft.org

ANALYZER: auCDtect: CD records authenticity detector, version 0.8.2
Copyright (c) 2004 Oleg Berngardt. All rights reserved.
Copyright (c) 2004 Alexander Djourik. All rights reserved.

FILE: 11 Preyed Upon.wav
  Size: 53978444 Hash: DA076198C46617BFAC3CCEF7FFBE8BEE Accuracy: -m0
  Conclusion: MPEG 95%
  Signature: 585ADB1DC4D03D705B3AB86AC7FEEA33DB152338
FILE: 10 Valentine Heart.wav
  Size: 43453244 Hash: 0BBE2E112E862C5EEDD4844CA43861E6 Accuracy: -m0
  Conclusion: CDDA 100%
  Signature: 4476DA0AF8B1DA5888F57E77FDE943C8B24F67D6
FILE: 09 He Likes The Sun.wav
  Size: 57976844 Hash: EC02576E20618C8CD13C232E006A3334 Accuracy: -m0
  Conclusion: CDDA 100%
  Signature: 636C974B815520DFA1CAA0D4802957D39EFEB6F3
FILE: 08 Poor Cow.wav
  Size: 20756444 Hash: 1B09E30AA513DD8C8598E6295DCE2D4C Accuracy: -m0
  Conclusion: CDDA 100%
  Signature: 12BD0FFEDDD1BBA84647EE43AEBA46494DE23DC4
FILE: 07 Twist In My Sobriety.wav
  Size: 51657020 Hash: 898C1862F37101F55259A9CC7EDC315D Accuracy: -m0
  Conclusion: CDDA 100%
  Signature: ADFBD4CDF597E8C689BE9AD61AB4D2097D7D74A3
FILE: 06 For All These Years.wav
  Size: 55476668 Hash: D81E5AA8D54A217877650CA8BA1864F2 Accuracy: -m0
  Conclusion: CDDA 100%
  Signature: 9C077587A27767EA555552CB4DCAC4B119C55ADA
FILE: 05 World Outside Your Window.wav
  Size: 51892220 Hash: 81D671F5A9BB741AE275B13FA89998EE Accuracy: -m0
  Conclusion: CDDA 100%
  Signature: BA4E3EE04FC91CBA597BA78FAE4DE1DB2DDFC672
FILE: 04 I Love You.wav
  Size: 29134268 Hash: 66921F132561841662696732408EA981 Accuracy: -m0
  Conclusion: CDDA 100%
  Signature: 31318C9A41D8BA32EAC9890EC74C45FBCA7A06B3
FILE: 03 Sighing Innocents.wav
  Size: 37690844 Hash: 1483C65FBF98A7A486630E1D82E3BAFC Accuracy: -m0
  Conclusion: CDDA 99%
  Signature: 9006CF0155F48FCE017E93BB09A355AD37C4656B
FILE: 02 Cathedral Song.wav
  Size: 30693644 Hash: EBFE3B3675CBAF204F0F9169EAFABCC9 Accuracy: -m0
  Conclusion: CDDA 100%
  Signature: AF0D973CB557AB94771AFA9CB88A8D3EFECB780B
FILE: 01 Good Tradition.wav
  Size: 30340844 Hash: 41713A4477CBD9BF1E1C0EDAFF5CC350 Accuracy: -m0
  Conclusion: CDDA 100%
  Signature: 2D64B919A34C253FBDB4D1E8D7960281B2BAA7AE


файла целиком:
Код: выделить все

-----------------------

DON'T MODIFY THIS FILE

-----------------------

PERFORMER: auCDtect Task Manager, ver. 1.5.1RC6 build 1.5.1.7
Copyright (c) 2008-2010 y-soft. All rights reserved
http://y-soft.org

ANALYZER: auCDtect: CD records authenticity detector, version 0.8.2
Copyright (c) 2004 Oleg Berngardt. All rights reserved.
Copyright (c) 2004 Alexander Djourik. All rights reserved.

FILE: Tanita Tikaram - Ancient Heart.flac
  Size: 238765944 Hash: 15571ECCB33E9A33E93AD97A8D522E07 Accuracy: -m0
  Conclusion: MPEG 95%
  Signature: 1F0249ECE5CEDD7566EFCB1BEEBB9148FA8CD49F

Код: выделить все
[CUETools log; Date: 27.05.2012 11:49:29; Version: 2.1.4]
Pregap length 00:00:38.
[CTDB TOCID: tQCQ98qZtg6rorsEnv7hqQEQqfE-] disk not present in database.
[AccurateRip ID: 0010a621-0093d445-840a410b] disk not present in database.

Track Peak [ CRC32  ] [W/O NULL] [  LOG   ]
 --   77,9 [BDED7992] [5F580BAD]
 01   71,5 [6C47D199] [DE389E94]   CRC32
 02   62,7 [6B85FEA7] [E58A5571]   CRC32
 03   62,7 [AD40E130] [7055A043]   CRC32
 04   51,9 [31150F64] [5313A6FD]   CRC32
 05   64,7 [8AE946E7] [5CC2172F]   CRC32
 06   58,8 [24DF61A5] [D49EC93E]   CRC32
 07   77,9 [B5C642E2] [F78D3FC0]   CRC32
 08   53,9 [CC29C5AD] [B0678ADD]   CRC32
 09   69,9 [4077699F] [A09EB7A5]   CRC32
 10   55,8 [05A292EE] [805E412D]   CRC32
 11   66,3 [198EDF51] [E471FB00]   CRC32
Ancient Heart, Original Japanese Edition
Особенности издания: Оригинальное японское издание альбома.
Год выпуска: 1988
Лейбл: Warner Pioneer Japan
Номер по каталогу: 25P2-2464
Страна-производитель: Япония
Продолжительноcть: 00:43.45

Треклиcт:
01. Good Tradition 2.49
02. Cathedral Song 2.51
03. Sighing Innocents 3.31
04. I Love You 2.45
05. World Outside Your Window 4.52
06. For All These Years 5.13
07. Twist In My Sobriety 4.50
08. Poor Cow 1.56
09. He Likes The Sun 5.26
10. Valentine Heart 4.04
11. Preyed Upon 5.03
Код: выделить все

X Lossless Decoder version 20110611 (135.0)

XLD extraction logfile from 2011-07-10 09:11:41 +0100

Tanita Tikaram / Ancient Heart

Used drive : HL-DT-ST DVD-RW GH61N (revision PA03)

Ripper mode             : CDParanoia III 10.2
Disable audio cache     : OK for the drive with a cache less than 2750KiB
Make use of C2 pointers : NO
Read offset correction  : 667
Max retry count         : 100
Gap status              : Analyzed, Appended

TOC of the extracted CD
     Track |   Start  |  Length  | Start sector | End sector
    ---------------------------------------------------------
        1  | 00:00:00 | 02:52:25 |         0    |    12924
        2  | 02:52:25 | 02:53:67 |     12925    |    25966
        3  | 05:46:17 | 03:33:58 |     25967    |    41999
        4  | 09:20:00 | 02:45:20 |     42000    |    54394
        5  | 12:05:20 | 04:54:25 |     54395    |    76469
        6  | 16:59:45 | 05:16:10 |     76470    |   100179
        7  | 22:15:55 | 04:52:02 |    100180    |   122081
        8  | 27:07:57 | 01:57:65 |    122082    |   130921
        9  | 29:05:47 | 05:28:50 |    130922    |   155571
       10  | 34:34:22 | 04:06:23 |    155572    |   174044
       11  | 38:40:45 | 05:04:67 |    174045    |   196911

AccurateRip Summary
    Track 01 : Not Found
    Track 02 : Not Found
    Track 03 : Not Found
    Track 04 : Not Found
    Track 05 : Not Found
    Track 06 : Not Found
    Track 07 : Not Found
    Track 08 : Not Found
    Track 09 : Not Found
    Track 10 : Not Found
    Track 11 : Not Found
        ->0 track(s) accurately ripped, 0 track(s) not, 11 track(s) not found

All Tracks
    Album gain             : -1.11 dB
    Peak                   : 0.947784
    Statistics
        Read error                           : 0
        Skipped (treated as error)           : 0
        Edge jitter error (maybe fixed)      : 0
        Atom jitter error (maybe fixed)      : 0
        Drift error (maybe fixed)            : 0
        Dropped bytes error (maybe fixed)    : 0
        Duplicated bytes error (maybe fixed) : 0

Track 01
    Filename : /Volumes/Data/Music/!!!_Ripped/01 - Good Tradition.flac
    Pre-gap length : 00:02:00

    Track gain             : -3.81 dB
    Peak                   : 0.919678
    CRC32 hash (test run)  : 1375878A
    CRC32 hash             : 1375878A
    CRC32 hash (skip zero) : 2BD0D3C8
    AccurateRip signature  : 90C6BFC0
        ->Track not present in AccurateRip database.
    Statistics
        Read error                           : 0
        Skipped (treated as error)           : 0
        Edge jitter error (maybe fixed)      : 0
        Atom jitter error (maybe fixed)      : 0
        Drift error (maybe fixed)            : 0
        Dropped bytes error (maybe fixed)    : 0
        Duplicated bytes error (maybe fixed) : 0
        Inconsistency in error sectors       : 0

Track 02
    Filename : /Volumes/Data/Music/!!!_Ripped/02 - Cathedral Song.flac
    Pre-gap length : 00:00:60

    Track gain             : -1.15 dB
    Peak                   : 0.746643
    CRC32 hash (test run)  : 9E267261
    CRC32 hash             : 9E267261
    CRC32 hash (skip zero) : 09FB8EC9
    AccurateRip signature  : EFC2BBF2
        ->Track not present in AccurateRip database.
    Statistics
        Read error                           : 0
        Skipped (treated as error)           : 0
        Edge jitter error (maybe fixed)      : 0
        Atom jitter error (maybe fixed)      : 0
        Drift error (maybe fixed)            : 0
        Dropped bytes error (maybe fixed)    : 0
        Duplicated bytes error (maybe fixed) : 0
        Inconsistency in error sectors       : 0

Track 03
    Filename : /Volumes/Data/Music/!!!_Ripped/03 - Sighing Innocents.flac
    Pre-gap length : 00:01:17

    Track gain             : 1.18 dB
    Peak                   : 0.742249
    CRC32 hash (test run)  : 198395D2
    CRC32 hash             : 198395D2
    CRC32 hash (skip zero) : 499B8ED6
    AccurateRip signature  : 4AB7CC20
        ->Track not present in AccurateRip database.
    Statistics
        Read error                           : 0
        Skipped (treated as error)           : 0
        Edge jitter error (maybe fixed)      : 0
        Atom jitter error (maybe fixed)      : 0
        Drift error (maybe fixed)            : 0
        Dropped bytes error (maybe fixed)    : 0
        Duplicated bytes error (maybe fixed) : 0
        Inconsistency in error sectors       : 0

Track 04
    Filename : /Volumes/Data/Music/!!!_Ripped/04 - I Love You.flac
    Pre-gap length : 00:00:25

    Track gain             : 0.83 dB
    Peak                   : 0.631134
    CRC32 hash (test run)  : 3C05CBB3
    CRC32 hash             : 3C05CBB3
    CRC32 hash (skip zero) : FAA2EDD4
    AccurateRip signature  : 334CB77B
        ->Track not present in AccurateRip database.
    Statistics
        Read error                           : 0
        Skipped (treated as error)           : 0
        Edge jitter error (maybe fixed)      : 0
        Atom jitter error (maybe fixed)      : 0
        Drift error (maybe fixed)            : 0
        Dropped bytes error (maybe fixed)    : 0
        Duplicated bytes error (maybe fixed) : 0
        Inconsistency in error sectors       : 0

Track 05
    Filename : /Volumes/Data/Music/!!!_Ripped/05 - World Outside Your Window.flac

    Track gain             : -3.48 dB
    Peak                   : 0.831360
    CRC32 hash (test run)  : C50E1B42
    CRC32 hash             : C50E1B42
    CRC32 hash (skip zero) : CC233243
    AccurateRip signature  : B4469B78
        ->Track not present in AccurateRip database.
    Statistics
        Read error                           : 0
        Skipped (treated as error)           : 0
        Edge jitter error (maybe fixed)      : 0
        Atom jitter error (maybe fixed)      : 0
        Drift error (maybe fixed)            : 0
        Dropped bytes error (maybe fixed)    : 0
        Duplicated bytes error (maybe fixed) : 0
        Inconsistency in error sectors       : 0

Track 06
    Filename : /Volumes/Data/Music/!!!_Ripped/06 - For All These Years.flac
    Pre-gap length : 00:01:53

    Track gain             : 0.13 dB
    Peak                   : 0.694092
    CRC32 hash (test run)  : 6B6E2C0C
    CRC32 hash             : 6B6E2C0C
    CRC32 hash (skip zero) : F7F4FE33
    AccurateRip signature  : 1DABF513
        ->Track not present in AccurateRip database.
    Statistics
        Read error                           : 0
        Skipped (treated as error)           : 0
        Edge jitter error (maybe fixed)      : 0
        Atom jitter error (maybe fixed)      : 0
        Drift error (maybe fixed)            : 0
        Dropped bytes error (maybe fixed)    : 0
        Duplicated bytes error (maybe fixed) : 0
        Inconsistency in error sectors       : 0

Track 07
    Filename : /Volumes/Data/Music/!!!_Ripped/07 - Twist In My Sobriety.flac
    Pre-gap length : 00:01:38

    Track gain             : 2.05 dB
    Peak                   : 0.947784
    CRC32 hash (test run)  : 44C3BB7A
    CRC32 hash             : 44C3BB7A
    CRC32 hash (skip zero) : 15AB82D7
    AccurateRip signature  : F08D6FC8
        ->Track not present in AccurateRip database.
    Statistics
        Read error                           : 0
        Skipped (treated as error)           : 0
        Edge jitter error (maybe fixed)      : 0
        Atom jitter error (maybe fixed)      : 0
        Drift error (maybe fixed)            : 0
        Dropped bytes error (maybe fixed)    : 0
        Duplicated bytes error (maybe fixed) : 0
        Inconsistency in error sectors       : 0

Track 08
    Filename : /Volumes/Data/Music/!!!_Ripped/08 - Poor Cow.flac
    Pre-gap length : 00:01:20

    Track gain             : 0.99 dB
    Peak                   : 0.692871
    CRC32 hash (test run)  : 9DFA4CAE
    CRC32 hash             : 9DFA4CAE
    CRC32 hash (skip zero) : E63E945C
    AccurateRip signature  : 98115158
        ->Track not present in AccurateRip database.
    Statistics
        Read error                           : 0
        Skipped (treated as error)           : 0
        Edge jitter error (maybe fixed)      : 0
        Atom jitter error (maybe fixed)      : 0
        Drift error (maybe fixed)            : 0
        Dropped bytes error (maybe fixed)    : 0
        Duplicated bytes error (maybe fixed) : 0
        Inconsistency in error sectors       : 0

Track 09
    Filename : /Volumes/Data/Music/!!!_Ripped/09 - He Likes The Sun.flac
    Pre-gap length : 00:00:22

    Track gain             : -0.89 dB
    Peak                   : 0.830292
    CRC32 hash (test run)  : C63FBE84
    CRC32 hash             : C63FBE84
    CRC32 hash (skip zero) : 98258035
    AccurateRip signature  : 9181A92C
        ->Track not present in AccurateRip database.
    Statistics
        Read error                           : 0
        Skipped (treated as error)           : 0
        Edge jitter error (maybe fixed)      : 0
        Atom jitter error (maybe fixed)      : 0
        Drift error (maybe fixed)            : 0
        Dropped bytes error (maybe fixed)    : 0
        Duplicated bytes error (maybe fixed) : 0
        Inconsistency in error sectors       : 0

Track 10
    Filename : /Volumes/Data/Music/!!!_Ripped/10 - Valentine Heart.flac
    Pre-gap length : 00:02:27

    Track gain             : 3.06 dB
    Peak                   : 0.696533
    CRC32 hash (test run)  : 645CB8C0
    CRC32 hash             : 645CB8C0
    CRC32 hash (skip zero) : 6C19978B
    AccurateRip signature  : CEF45273
        ->Track not present in AccurateRip database.
    Statistics
        Read error                           : 0
        Skipped (treated as error)           : 0
        Edge jitter error (maybe fixed)      : 0
        Atom jitter error (maybe fixed)      : 0
        Drift error (maybe fixed)            : 0
        Dropped bytes error (maybe fixed)    : 0
        Duplicated bytes error (maybe fixed) : 0
        Inconsistency in error sectors       : 0

Track 11
    Filename : /Volumes/Data/Music/!!!_Ripped/11 - Preyed Upon.flac
    Pre-gap length : 00:02:03

    Track gain             : 1.33 dB
    Peak                   : 0.814850
    CRC32 hash (test run)  : 42A5A3EB
    CRC32 hash             : 42A5A3EB
    CRC32 hash (skip zero) : C43C9396
    AccurateRip signature  : 0F5DD5E7
        ->Track not present in AccurateRip database.
    Statistics
        Read error                           : 0
        Skipped (treated as error)           : 0
        Edge jitter error (maybe fixed)      : 0
        Atom jitter error (maybe fixed)      : 0
        Drift error (maybe fixed)            : 0
        Dropped bytes error (maybe fixed)    : 0
        Duplicated bytes error (maybe fixed) : 0
        Inconsistency in error sectors       : 0

No errors occurred

End of status report
потрековый:
Код: выделить все

-----------------------

DON'T MODIFY THIS FILE

-----------------------

PERFORMER: auCDtect Task Manager, ver. 1.5.1RC6 build 1.5.1.7
Copyright (c) 2008-2010 y-soft. All rights reserved
http://y-soft.org

ANALYZER: auCDtect: CD records authenticity detector, version 0.8.2
Copyright (c) 2004 Oleg Berngardt. All rights reserved.
Copyright (c) 2004 Alexander Djourik. All rights reserved.

FILE: 11 - Preyed Upon.flac
  Size: 28799581 Hash: 0B599C8C059239A04A63E24C0E3E7517 Accuracy: -m0
  Conclusion: CDDA 100%
  Signature: 6D486598665771DE421F2D00FECDAB6501CF0FEC
FILE: 10 - Valentine Heart.flac
  Size: 19957643 Hash: 5653CDD9B700AA4D72BEC7692202E056 Accuracy: -m0
  Conclusion: CDDA 100%
  Signature: AF5B994654E672CA7B0952B55589FF12E6C8912A
FILE: 09 - He Likes The Sun.flac
  Size: 32542131 Hash: 599C0A25C1F62D3878CE9167917FA584 Accuracy: -m0
  Conclusion: CDDA 99%
  Signature: 063DF74BC89F18F1D669757F4E91B0E729008376
FILE: 08 - Poor Cow.flac
  Size: 11536693 Hash: DCC3D4048A04A62044629A772F7CC21A Accuracy: -m0
  Conclusion: CDDA 100%
  Signature: CDF5C79C7DD57C1167135817FF75CC00414BD729
FILE: 07 - Twist In My Sobriety.flac
  Size: 29275043 Hash: 5B4A67E6D49657868F3315B979260BA5 Accuracy: -m0
  Conclusion: CDDA 100%
  Signature: 183F594FCC047453F91A59302AB2630AF99CD9A6
FILE: 06 - For All These Years.flac
  Size: 28856473 Hash: 59776A9A67B939697640066DC571E254 Accuracy: -m0
  Conclusion: CDDA 99%
  Signature: 14391E882FE5EA4B517AF5C78D93F4FE903E878B
FILE: 05 - World Outside Your Window.flac
  Size: 31922799 Hash: D7BAB1BE2474446B5A9E133645D6C731 Accuracy: -m0
  Conclusion: CDDA 100%
  Signature: F76E3DF20B0062088912352F65ECB9251746FF8A
FILE: 04 - I Love You.flac
  Size: 14070027 Hash: 6D514127EF76C15243075BF67D9A37A4 Accuracy: -m0
  Conclusion: CDDA 100%
  Signature: 59E8F86368FB2CF233BD889B778D35D20132622E
FILE: 03 - Sighing Innocents.flac
  Size: 21354745 Hash: EFDA129CC8096A479C174A9E2D2ADEFE Accuracy: -m0
  Conclusion: MPEG 95%
  Signature: B6F8CDF45FD609861DC36D8CBCE2EC09B45E5710
FILE: 02 - Cathedral Song.flac
  Size: 15563309 Hash: A4D0275FC39DF613FE93AA4C108F13CC Accuracy: -m0
  Conclusion: CDDA 100%
  Signature: 077972397BC042344AB26E2E0D7B2AFF0816F216
FILE: 01 - Good Tradition.flac
  Size: 19579577 Hash: 7DD6ADA136EB1B3EC0DD3C82E3B55910 Accuracy: -m0
  Conclusion: CDDA 100%
  Signature: FF0A8E9B013172504BA4F937C2496E8A96660E55

файла целиком:
Код: выделить все

-----------------------

DON'T MODIFY THIS FILE

-----------------------

PERFORMER: auCDtect Task Manager, ver. 1.5.1RC6 build 1.5.1.7
Copyright (c) 2008-2010 y-soft. All rights reserved
http://y-soft.org

ANALYZER: auCDtect: CD records authenticity detector, version 0.8.2
Copyright (c) 2004 Oleg Berngardt. All rights reserved.
Copyright (c) 2004 Alexander Djourik. All rights reserved.

FILE: Tanita Tikaram - Ancient Heart.flac
  Size: 250291689 Hash: 750475FDBCFE32D48AA56D363B112F1A Accuracy: -m0
  Conclusion: MPEG 95%
  Signature: 335218A85AD15C41363109EBE34FEB7C06D63DB3
Код: выделить все
[CUETools log; Date: 27.05.2012 13:07:24; Version: 2.1.4]
[AccurateRip ID: 0010a78e-0093e310-890a410b] found.
Track   [  CRC   |   V2   ] Status
 01     [90c6bfc0|33c532da] (0+0/0) No match
 02     [efc2bbf2|e275f10e] (0+0/0) No match
 03     [4ab7cc20|e879dd6d] (0+0/0) No match
 04     [334cb77b|d199626a] (0+0/0) No match
 05     [b4469b78|bef0fd4c] (0+0/0) No match
 06     [1dabf513|39edfcb5] (0+0/0) No match
 07     [f08d6fc8|96d5e51f] (0+0/0) No match
 08     [98115158|7d00f9ec] (0+0/0) No match
 09     [9181a92c|94932c77] (0+0/0) No match
 10     [cef45273|b070b1c9] (0+0/0) No match
 11     [0f5dd5e7|075fd7c0] (0+0/0) No match

Track Peak [ CRC32  ] [W/O NULL]
 --   94,7 [99406720] [3E8EE46B]
 01   91,9 [1375878A] [2BD0D3C8]
 02   74,6 [9E267261] [09FB8EC9]
 03   74,2 [198395D2] [499B8ED6]
 04   63,1 [3C05CBB3] [FAA2EDD4]
 05   83,1 [C50E1B42] [CC233243]
 06   69,4 [6B6E2C0C] [F7F4FE33]
 07   94,7 [44C3BB7A] [15AB82D7]
 08   69,2 [9DFA4CAE] [E63E945C]
 09   83,0 [C63FBE84] [98258035]
 10   69,6 [645CB8C0] [6C19978B]
 11   81,4 [42A5A3EB] [C43C9396]
Год выпуска: 1990
Производитель диска: USA
Лейбл: WEA, CD 70800
EAN/UPC: 090317080024
Продолжительноcть: 00:47:35

Треклиcт:
01. Once & Not Speak [0:04:46.07]
02. Thursday's Child [0:03:56.03]
03. It All Came Back Today [0:06:03.65]
04. We Almost Got It Together [0:04:04.17]
05. Consider The Rain [0:05:17.08]
06. Sunset's Arrived [0:05:08.42]
07. Little Sister Leaving Town [0:03:59.10]
08. I Owe All To You [0:04:31.50]
09. Love Story [0:03:19.38]
10. Harm in your hands [0:06:28.65]
Код: выделить все

Exact Audio Copy V0.99 prebeta 5 from 4. May 2009

EAC extraction logfile from 23. March 2010, 21:03

Tanita Tikaram / The Sweet Keeper

Used drive  : HL-DT-STDVDRAM_GSA-T20N   Adapter: 0  ID: 0

Read mode               : Secure
Utilize accurate stream : Yes
Defeat audio cache      : Yes
Make use of C2 pointers : No

Read offset correction                      : 667
Overread into Lead-In and Lead-Out          : No
Fill up missing offset samples with silence : Yes
Delete leading and trailing silent blocks   : No
Null samples used in CRC calculations       : Yes
Used interface                              : Installed external ASPI interface

Used output format              : User Defined Encoder
Selected bitrate                : 768 kBit/s
Quality                         : High
Add ID3 tag                     : No
Command line compressor         : C:\Program Files\Exact Audio Copy\Flac\flac.exe
Additional command line options : -8 -V %s

TOC of the extracted CD

     Track |   Start  |  Length  | Start sector | End sector
    ---------------------------------------------------------
        1  |  0:00.00 |  4:46.07 |         0    |    21456
        2  |  4:46.07 |  3:56.03 |     21457    |    39159
        3  |  8:42.10 |  6:03.65 |     39160    |    66449
        4  | 14:46.00 |  4:04.17 |     66450    |    84766
        5  | 18:50.17 |  5:17.08 |     84767    |   108549
        6  | 24:07.25 |  5:08.42 |    108550    |   131691
        7  | 29:15.67 |  3:59.10 |    131692    |   149626
        8  | 33:15.02 |  4:31.50 |    149627    |   170001
        9  | 37:46.52 |  3:19.38 |    170002    |   184964
       10  | 41:06.15 |  6:28.65 |    184965    |   214129

Range status and errors

Selected range

     Filename C:\Music\Tanita Tikaram - The Sweet Keeper.wav

     Peak level 93.3 %
     Range quality 100.0 %
     Test CRC B663DFF2
     Copy CRC B663DFF2
     Copy OK

No errors occurred

AccurateRip summary

Track  1  accurately ripped (confidence 3)  [34CA2B33]
Track  2  accurately ripped (confidence 3)  [D98CF3F7]
Track  3  accurately ripped (confidence 3)  [832B4E62]
Track  4  accurately ripped (confidence 3)  [024E4A4B]
Track  5  accurately ripped (confidence 3)  [4C4EC4B6]
Track  6  accurately ripped (confidence 3)  [6C8E67E1]
Track  7  accurately ripped (confidence 3)  [C6B483ED]
Track  8  accurately ripped (confidence 3)  [0A13F8A2]
Track  9  accurately ripped (confidence 3)  [8B1F8F45]
Track 10  accurately ripped (confidence 3)  [04EA8362]

All tracks accurately ripped

End of status report
Код: выделить все

-----------------------

DON'T MODIFY THIS FILE

-----------------------

PERFORMER: auCDtect Task Manager, ver. 1.5.1RC6 build 1.5.1.7
Copyright (c) 2008-2010 y-soft. All rights reserved
http://y-soft.org

ANALYZER: auCDtect: CD records authenticity detector, version 0.8.2
Copyright (c) 2004 Oleg Berngardt. All rights reserved.
Copyright (c) 2004 Alexander Djourik. All rights reserved.

FILE: Tanita Tikaram - The Sweet Keeper.flac
  Size: 261160686 Hash: B347BE5F84719A6528D6710F02453468 Accuracy: -m0
  Conclusion: CDDA 100%
  Signature: CD4832A940257379EF36FF8358BEB5E2890202E8

Код: выделить все
[CUETools log; Date: 27.05.2012 11:49:50; Version: 2.1.4]
[CTDB TOCID: ADkFPsm4etXjtgXuZjEoQ7cm.NY-] disk not present in database.
[AccurateRip ID: 0011dd70-008ec018-a40b270a] found.
Track   [  CRC   |   V2   ] Status
 01     [34ca2b33|6b5dd0cf] (5+0/5) Accurately ripped
 02     [d98cf3f7|eed17a46] (4+0/4) Accurately ripped
 03     [832b4e62|0c85ed51] (4+0/4) Accurately ripped
 04     [024e4a4b|b33c8bdf] (4+0/4) Accurately ripped
 05     [4c4ec4b6|f53fbb43] (4+0/4) Accurately ripped
 06     [6c8e67e1|3aee0e19] (4+0/4) Accurately ripped
 07     [c6b483ed|f0863d2e] (4+0/4) Accurately ripped
 08     [0a13f8a2|65ed576d] (4+0/4) Accurately ripped
 09     [8b1f8f45|0ef134f6] (5+0/5) Accurately ripped
 10     [04ea8362|3e849280] (4+0/4) Accurately ripped

Track Peak [ CRC32  ] [W/O NULL] [  LOG   ]
 --   93,3 [B663DFF2] [13EECBF3]   CRC32
 01   93,3 [5E954D28] [F812E653]
 02   93,3 [A707EB5F] [272CA41C]
 03   54,3 [138B8323] [5755B3C3]
 04   72,2 [ACA66028] [A8FA82B2]
 05   77,6 [FFF7E802] [1A99F609]
 06   82,7 [137C9396] [40EE93C8]
 07   73,9 [5D38E464] [D3951465]
 08   93,3 [4240FCC9] [2DC28843]
 09   70,2 [7C1767E6] [73C5E7CF]
 10   73,3 [B95D4302] [576DE74C]
Год выпуска: 1991
Лейбл: WEA Records Ltd. (26486-2), USA
Продолжительноcть: 00:48:09

Треклиcт:
01 Only The One We Love (2:53)
02 Deliver Me (3:58)
03 This History In Me (3:14)
04 To Wish This (4:20)
05 Mud In Any Water (3:46)
06 Sunface (3:55)
07 Never Known (2:45)
08 This Stranger (3:12)
09 Swear By Me (3:23)
10 Hot Pork Sandwiches (3:52)
11 Me In Mind (3:26)
12 Sometime With Me (2:54)
13 Love The Heaven's Solo (2:51)
14 I'm Going Home (3:42)
Код: выделить все

Exact Audio Copy V0.99 prebeta 4 from 23. January 2008

EAC extraction logfile from 1. February 2009, 2:48

Tanita Tikaram / Everybody's Angel

Used drive  : HL-DT-STDVDRAM GSA-H10L   Adapter: 1  ID: 0

Read mode               : Secure
Utilize accurate stream : Yes
Defeat audio cache      : Yes
Make use of C2 pointers : No

Read offset correction                      : 667
Overread into Lead-In and Lead-Out          : No
Fill up missing offset samples with silence : Yes
Delete leading and trailing silent blocks   : No
Null samples used in CRC calculations       : Yes
Used interface                              : Native Win32 interface for Win NT & 2000
Gap handling                                : Appended to previous track

Used output format              : User Defined Encoder
Selected bitrate                : 128 kBit/s
Quality                         : High
Add ID3 tag                     : No
Command line compressor         : E:\Program Files\Exact Audio Copy\Flac\flac.exe
Additional command line options : -V -8 -T "artist=%a" -T "title=%t" -T "album=%g" -T "date=%y" -T "tracknumber=%n" -T "genre=%m" %s

TOC of the extracted CD

     Track |   Start  |  Length  | Start sector | End sector
    ---------------------------------------------------------
        1  |  0:00.33 |  2:53.02 |        33    |    13009
        2  |  2:53.35 |  3:58.00 |     13010    |    30859
        3  |  6:51.35 |  3:14.23 |     30860    |    45432
        4  | 10:05.58 |  4:19.22 |     45433    |    64879
        5  | 14:25.05 |  3:46.18 |     64880    |    81847
        6  | 18:11.23 |  3:54.70 |     81848    |    99467
        7  | 22:06.18 |  2:44.25 |     99468    |   111792
        8  | 24:50.43 |  3:11.62 |    111793    |   126179
        9  | 28:02.30 |  3:22.70 |    126180    |   141399
       10  | 31:25.25 |  3:51.58 |    141400    |   158782
       11  | 35:17.08 |  3:25.40 |    158783    |   174197
       12  | 38:42.48 |  2:53.62 |    174198    |   187234
       13  | 41:36.35 |  2:50.50 |    187235    |   200034
       14  | 44:27.10 |  3:42.05 |    200035    |   216689

Track  1

     Filename E:\Documents and Settings\My Documents\Torrents\Tanita Tikaram - Everybody's Angel (1991) (FLAC)\01 Only The Ones We Love.wav

     Pre-gap length  0:00:02.33

     Peak level 97.7 %
     Track quality 99.9 %
     Test CRC 7C1D1920
     Copy CRC 7C1D1920
     Copy OK

Track  2

     Filename E:\Documents and Settings\My Documents\Torrents\Tanita Tikaram - Everybody's Angel (1991) (FLAC)\02 Deliver Me.wav

     Pre-gap length  0:00:01.72

     Peak level 93.3 %
     Track quality 100.0 %
     Test CRC A8ED127C
     Copy CRC A8ED127C
     Copy OK

Track  3

     Filename E:\Documents and Settings\My Documents\Torrents\Tanita Tikaram - Everybody's Angel (1991) (FLAC)\03 This Story In Me.wav

     Pre-gap length  0:00:02.07

     Peak level 93.3 %
     Track quality 100.0 %
     Test CRC 5568CE4D
     Copy CRC 5568CE4D
     Copy OK

Track  4

     Filename E:\Documents and Settings\My Documents\Torrents\Tanita Tikaram - Everybody's Angel (1991) (FLAC)\04 To Wish This.wav

     Pre-gap length  0:00:00.43

     Peak level 95.5 %
     Track quality 100.0 %
     Test CRC D0439842
     Copy CRC D0439842
     Copy OK

Track  5

     Filename E:\Documents and Settings\My Documents\Torrents\Tanita Tikaram - Everybody's Angel (1991) (FLAC)\05 Mud In Any Water.wav

     Pre-gap length  0:00:01.47

     Peak level 95.5 %
     Track quality 100.0 %
     Test CRC 0DB13E71
     Copy CRC 0DB13E71
     Copy OK

Track  6

     Filename E:\Documents and Settings\My Documents\Torrents\Tanita Tikaram - Everybody's Angel (1991) (FLAC)\06 Sunface.wav

     Pre-gap length  0:00:01.28

     Peak level 95.5 %
     Track quality 100.0 %
     Test CRC 965CB208
     Copy CRC 965CB208
     Copy OK

Track  7

     Filename E:\Documents and Settings\My Documents\Torrents\Tanita Tikaram - Everybody's Angel (1991) (FLAC)\07 Never Known.wav

     Pre-gap length  0:00:01.48

     Peak level 95.5 %
     Track quality 100.0 %
     Test CRC 8AC91134
     Copy CRC 8AC91134
     Copy OK

Track  8

     Filename E:\Documents and Settings\My Documents\Torrents\Tanita Tikaram - Everybody's Angel (1991) (FLAC)\08 This Stranger.wav

     Pre-gap length  0:00:01.70

     Peak level 95.5 %
     Track quality 99.9 %
     Test CRC 2CA419DB
     Copy CRC 2CA419DB
     Copy OK

Track  9

     Filename E:\Documents and Settings\My Documents\Torrents\Tanita Tikaram - Everybody's Angel (1991) (FLAC)\09 Swear By Me.wav

     Pre-gap length  0:00:01.52

     Peak level 95.5 %
     Track quality 100.0 %
     Test CRC 90E0F779
     Copy CRC 90E0F779
     Copy OK

Track 10

     Filename E:\Documents and Settings\My Documents\Torrents\Tanita Tikaram - Everybody's Angel (1991) (FLAC)\10 Hot Pork Sandwiches.wav

     Pre-gap length  0:00:02.15

     Peak level 95.5 %
     Track quality 99.9 %
     Test CRC A101377E
     Copy CRC A101377E
     Copy OK

Track 11

     Filename E:\Documents and Settings\My Documents\Torrents\Tanita Tikaram - Everybody's Angel (1991) (FLAC)\11 Me In Mind.wav

     Pre-gap length  0:00:01.58

     Peak level 95.5 %
     Track quality 99.9 %
     Test CRC 1F0C2116
     Copy CRC 1F0C2116
     Copy OK

Track 12

     Filename E:\Documents and Settings\My Documents\Torrents\Tanita Tikaram - Everybody's Angel (1991) (FLAC)\12 Sometime With Me.wav

     Pre-gap length  0:00:01.45

     Peak level 97.7 %
     Track quality 100.0 %
     Test CRC 439138BB
     Copy CRC 439138BB
     Copy OK

Track 13

     Filename E:\Documents and Settings\My Documents\Torrents\Tanita Tikaram - Everybody's Angel (1991) (FLAC)\13 I Love The Heaven's Solo.wav

     Pre-gap length  0:00:01.60

     Peak level 95.5 %
     Track quality 99.9 %
     Test CRC 37C3C16C
     Copy CRC 37C3C16C
     Copy OK

Track 14

     Filename E:\Documents and Settings\My Documents\Torrents\Tanita Tikaram - Everybody's Angel (1991) (FLAC)\14 I'm Going Home.wav

     Pre-gap length  0:00:01.27

     Peak level 95.5 %
     Track quality 100.0 %
     Test CRC B4C7C947
     Copy CRC B4C7C947
     Copy OK

No errors occurred

End of status report
Код: выделить все

-----------------------

DON'T MODIFY THIS FILE

-----------------------

PERFORMER: auCDtect Task Manager, ver. 1.5.1RC6 build 1.5.1.7
Copyright (c) 2008-2010 y-soft. All rights reserved
http://y-soft.org

ANALYZER: auCDtect: CD records authenticity detector, version 0.8.2
Copyright (c) 2004 Oleg Berngardt. All rights reserved.
Copyright (c) 2004 Alexander Djourik. All rights reserved.

FILE: Tanita Tikaram - Everybody's Angel.flac
  Size: 296295433 Hash: EA6C5849BA63667BDBE1F1E81C921162 Accuracy: -m0
  Conclusion: CDDA 100%
  Signature: 7AA576A51343397A5125D4728B9C88294429E595
Код: выделить все
[CUETools log; Date: 27.05.2012 11:51:03; Version: 2.1.4]
Pregap length 00:00:33.
[CTDB TOCID: JdRtXHMlroUSj2puT6NyjCBtFvk-] disk not present in database.
[AccurateRip ID: 00193486-010c37f9-d50b490e] found.
Track   [  CRC   |   V2   ] Status
 01     [ee81c9e4|1724cea8] (22+00/34) Accurately ripped
 02     [0d541313|a35df1a3] (22+00/33) Accurately ripped
 03     [bc0d4b1e|e3c2c7f5] (23+00/35) Accurately ripped
 04     [2adc4432|9a9c2e75] (23+00/34) Accurately ripped
 05     [4345822e|f799d09c] (22+00/34) Accurately ripped
 06     [87156311|f843d64b] (23+00/35) Accurately ripped
 07     [7b2cc3ca|909bdb3e] (22+00/34) Accurately ripped
 08     [40d37bd6|715e2f93] (00+00/35) No match
 09     [a718f116|ce29d253] (23+00/34) Accurately ripped
 10     [853aec1c|339c8fb4] (22+00/33) Accurately ripped
 11     [5c43c145|6cad9f07] (22+00/34) Accurately ripped
 12     [44428cdc|5aff75cf] (23+00/35) Accurately ripped
 13     [b6836b4c|e966fdab] (21+00/32) Accurately ripped
 14     [f38704d5|25c23217] (23+00/34) Accurately ripped
Offsetted by 297:
 01     [ba641967] (12/34) Accurately ripped
 02     [fc1c7260] (11/33) Accurately ripped
 03     [719d0170] (12/35) Accurately ripped
 04     [2c20e774] (11/34) Accurately ripped
 05     [97de472d] (12/34) Accurately ripped
 06     [c42aa8b6] (12/35) Accurately ripped
 07     [8a583e3b] (12/34) Accurately ripped
 08     [36ceb537] (00/35) No match (V2 was not tested)
 09     [401f767b] (11/34) Accurately ripped
 10     [effd7c6b] (11/33) Accurately ripped
 11     [0ea2bd91] (12/34) Accurately ripped
 12     [b3be1c83] (12/35) Accurately ripped
 13     [4d60301f] (11/32) Accurately ripped
 14     [3850f3ee] (11/34) Accurately ripped

Track Peak [ CRC32  ] [W/O NULL] [  LOG   ]
 --   97,7 [84232EAE] [F9EC4DFE]
 01   97,7 [7C1D1920] [02083E87]   CRC32
 02   93,3 [A8ED127C] [92097325]   CRC32
 03   93,3 [5568CE4D] [E05F59FC]   CRC32
 04   95,5 [D0439842] [B8D376C7]   CRC32
 05   95,5 [0DB13E71] [217AAEA9]   CRC32
 06   95,5 [965CB208] [3FFF75EC]   CRC32
 07   95,5 [8AC91134] [622EDCD3]   CRC32
 08   95,5 [4D4256D6] [53857E60] [2CA419DB]
 09   95,5 [90E0F779] [985FE78D]   CRC32
 10   95,5 [A101377E] [CFFF6F08]   CRC32
 11   95,5 [1F0C2116] [F207EFE6]   CRC32
 12   97,7 [439138BB] [CC543A83]   CRC32
 13   95,5 [37C3C16C] [0E92E94F]   CRC32
 14   95,5 [B4C7C947] [031E276A]   CRC32
Год выпуска: 1992
Производитель диска: Germany
Продолжительноcть: 00:43:32

Треклиcт:
01. You Make The Whole World Cry [0:03:38.70]
02. Elephant [0:03:58.65]
03. Trouble [0:03:55.00]
04. I Grant You [0:02:30.73]
05. Heal You [0:04:25.65]
06. To Drink The Rainbow [0:03:19.05]
07. Out On The Town [0:03:15.70]
08. Hot Stones [0:02:58.72]
09. Men and Women [0:03:08.60]
10. Any Reason [0:03:35.45]
11. Love Don't Need No Tyranny [0:05:02.08]
12. The Way That I Want You [0:03:42.50]
Код: выделить все

Exact Audio Copy V0.99 prebeta 4 from 23. January 2008

EAC extraction logfile from 3. March 2009, 8:16

Tanita Tikaram / Eleven Kinds Of Loneliness

Used drive  : HL-DT-STDVDRAM_GSA-T20N   Adapter: 0  ID: 0

Read mode               : Secure
Utilize accurate stream : Yes
Defeat audio cache      : Yes
Make use of C2 pointers : No

Read offset correction                      : 667
Overread into Lead-In and Lead-Out          : No
Fill up missing offset samples with silence : Yes
Delete leading and trailing silent blocks   : No
Null samples used in CRC calculations       : Yes
Used interface                              : Native Win32 interface for Win NT & 2000

Used output format              : User Defined Encoder
Selected bitrate                : 768 kBit/s
Quality                         : High
Add ID3 tag                     : No
Command line compressor         : C:\Program Files\Exact Audio Copy\Flac\flac.exe
Additional command line options : -6 -V -T "ARTIST=%a" -T "TITLE=%t" -T "ALBUM=%g" -T "DATE=%y" -T "TRACKNUMBER=%n" -T "GENRE=%m" -T "COMMENT=%e" %s -o %d

TOC of the extracted CD

     Track |   Start  |  Length  | Start sector | End sector
    ---------------------------------------------------------
        1  |  0:00.00 |  3:38.70 |         0    |    16419
        2  |  3:38.70 |  3:58.65 |     16420    |    34334
        3  |  7:37.60 |  3:55.00 |     34335    |    51959
        4  | 11:32.60 |  2:30.73 |     51960    |    63282
        5  | 14:03.58 |  4:25.65 |     63283    |    83222
        6  | 18:29.48 |  3:19.05 |     83223    |    98152
        7  | 21:48.53 |  3:15.70 |     98153    |   112847
        8  | 25:04.48 |  2:58.72 |    112848    |   126269
        9  | 28:03.45 |  3:08.60 |    126270    |   140429
       10  | 31:12.30 |  3:35.45 |    140430    |   156599
       11  | 34:48.00 |  5:02.08 |    156600    |   179257
       12  | 39:50.08 |  3:42.50 |    179258    |   195957

Range status and errors

Selected range

     Filename D:\Tanita Tikaram - Eleven Kinds Of Loneliness.wav

     Peak level 100.0 %
     Range quality 100.0 %
     Copy CRC 6ADF3583
     Copy OK

No errors occurred

AccurateRip summary

Track  1  accurately ripped (confidence 13)  [751BB6ED]
Track  2  accurately ripped (confidence 13)  [7F6E480F]
Track  3  accurately ripped (confidence 13)  [4D605889]
Track  4  accurately ripped (confidence 13)  [FF86D441]
Track  5  accurately ripped (confidence 13)  [0BE16369]
Track  6  accurately ripped (confidence 13)  [8D38D501]
Track  7  accurately ripped (confidence 12)  [6FD10B9D]
Track  8  accurately ripped (confidence 13)  [958EC398]
Track  9  accurately ripped (confidence 13)  [034547AE]
Track 10  accurately ripped (confidence 13)  [D98E2EE6]
Track 11  accurately ripped (confidence 13)  [0727B91F]
Track 12  accurately ripped (confidence 13)  [697118EA]

All tracks accurately ripped

End of status report
потрековый:
Код: выделить все

-----------------------

DON'T MODIFY THIS FILE

-----------------------

PERFORMER: auCDtect Task Manager, ver. 1.5.1RC6 build 1.5.1.7
Copyright (c) 2008-2010 y-soft. All rights reserved
http://y-soft.org

ANALYZER: auCDtect: CD records authenticity detector, version 0.8.2
Copyright (c) 2004 Oleg Berngardt. All rights reserved.
Copyright (c) 2004 Alexander Djourik. All rights reserved.

FILE: 12 The Way That I Want You.wav
  Size: 39278444 Hash: DAB53500ACE6F9D4893EE69F9D723010 Accuracy: -m0
  Conclusion: CDDA 100%
  Signature: 2906B1B22AF2A3D1544E2766C62C40355CE7CF77
FILE: 11 Love Don't Need No Tyranny.wav
  Size: 53291660 Hash: EFB9CF5B07CC337CE91EF725A8C440ED Accuracy: -m0
  Conclusion: CDDA 100%
  Signature: 203282E0D94C32D6ECCA02A97C12B721BABAE539
FILE: 10 Any Reason.wav
  Size: 38031884 Hash: 5DD8B24ACFFEF21F6E0985AA98C69566 Accuracy: -m0
  Conclusion: CDDA 100%
  Signature: 26B9CE7F5BA2EB39F56A247630350C6E32E07535
FILE: 09 Men and Women.wav
  Size: 33304364 Hash: 145A01B83AEA77A4092F1FA38FF25F10 Accuracy: -m0
  Conclusion: CDDA 100%
  Signature: 9E3A523C9733CE5D3D0C7486985C5CF52815C3D2
FILE: 08 Hot Stones.wav
  Size: 31568588 Hash: 6B8FFAEBC9472A26D4646EE10C3367B6 Accuracy: -m0
  Conclusion: CDDA 100%
  Signature: DBB36E0D215079354E867FAE4ED8C0766A1D67F7
FILE: 07 Out On The Town.wav
  Size: 34562684 Hash: 97A1A1F5C573CDF9D41F588FAB3B6E2D Accuracy: -m0
  Conclusion: CDDA 100%
  Signature: 80F471F9BD67BCE6BA2F854BDBDAA9E6D10252B0
FILE: 06 To Drink The Rainbow.wav
  Size: 35115404 Hash: 9269C653B8903E5D1352C4D378E46CF8 Accuracy: -m0
  Conclusion: CDDA 100%
  Signature: E36402B118551FF2B37DEDBCFA9344729AD393B0
FILE: 05 Heal You.wav
  Size: 46898924 Hash: F6FF56223D4FCC1959BBE5B21B6EC743 Accuracy: -m0
  Conclusion: CDDA 100%
  Signature: 500D317DC0075AFD420C90CB6568AA91000428CB
FILE: 04 I Grant You.wav
  Size: 26631740 Hash: DF5575D7A1008AD3115F2F23B36BA09D Accuracy: -m0
  Conclusion: CDDA 100%
  Signature: 76FA56DD3AFA9209460889281738F61758BE38A5
FILE: 03 Trouble.wav
  Size: 41454044 Hash: E3A00718EFD26E32776C99DC53476D52 Accuracy: -m0
  Conclusion: CDDA 100%
  Signature: 99DA716A5FD9B0E5038B6B04A32779E1C1F37A63
FILE: 02 Elephant.wav
  Size: 42136124 Hash: F7E895ED80472B6782F0BB7603C6D702 Accuracy: -m0
  Conclusion: CDDA 100%
  Signature: D0CD8DB7D5C32E91701E2A51C5387F172B1D9B70
FILE: 01 You Make The Whole World Cry.wav
  Size: 38619884 Hash: 7F6DD8B82E87ED0EA305C907AF04921A Accuracy: -m0
  Conclusion: CDDA 100%
  Signature: 8E9F4CB16228BFF983206978F16092F660D3507B


целый файл:
Код: выделить все

-----------------------

DON'T MODIFY THIS FILE

-----------------------

PERFORMER: auCDtect Task Manager, ver. 1.5.1RC6 build 1.5.1.7
Copyright (c) 2008-2010 y-soft. All rights reserved
http://y-soft.org

ANALYZER: auCDtect: CD records authenticity detector, version 0.8.2
Copyright (c) 2004 Oleg Berngardt. All rights reserved.
Copyright (c) 2004 Alexander Djourik. All rights reserved.

FILE: Tanita Tikaram - Eleven Kinds Of Loneliness.flac
  Size: 258991531 Hash: AC8E130C9EFEFFED5E627CE3F9E799B4 Accuracy: -m0
  Conclusion: MPEG 95%
  Signature: F47C6E3E0BE7CDFFD5F77B647DBC6FCEC72124A5

Код: выделить все
 [CUETools log; Date: 27.05.2012 11:51:37; Version: 2.1.4]
[CTDB TOCID: XPV9CV8V68nQMFfOx.5tgl_wmns-] found.
Track | CTDB Status
  1   | (6/6) Accurately ripped
  2   | (6/6) Accurately ripped
  3   | (6/6) Accurately ripped
  4   | (6/6) Accurately ripped
  5   | (6/6) Accurately ripped
  6   | (6/6) Accurately ripped
  7   | (6/6) Accurately ripped
  8   | (6/6) Accurately ripped
  9   | (6/6) Accurately ripped
 10   | (6/6) Accurately ripped
 11   | (6/6) Accurately ripped
 12   | (6/6) Accurately ripped
[AccurateRip ID: 001334f2-00b2b2c6-940a340c] found.
Track   [  CRC   |   V2   ] Status
 01     [751bb6ed|9bc2f75e] (52+08/60) Accurately ripped
 02     [7f6e480f|b9a42fe7] (52+08/60) Accurately ripped
 03     [4d605889|b57b3e37] (52+08/60) Accurately ripped
 04     [ff86d441|1242b09d] (51+07/58) Accurately ripped
 05     [0be16369|0301b35c] (52+08/60) Accurately ripped
 06     [8d38d501|2c48a15d] (52+08/60) Accurately ripped
 07     [6fd10b9d|af808d32] (51+08/59) Accurately ripped
 08     [958ec398|098b22c2] (51+08/59) Accurately ripped
 09     [034547ae|ffb16d3f] (51+08/59) Accurately ripped
 10     [d98e2ee6|9e0bcccc] (51+08/59) Accurately ripped
 11     [0727b91f|3ab28518] (50+08/58) Accurately ripped
 12     [697118ea|db3be742] (50+08/58) Accurately ripped

Track Peak [ CRC32  ] [W/O NULL] [  LOG   ]
 --  100,0 [6ADF3583] [722E2801]   CRC32
 01   96,1 [60479DB0] [65F3911F]
 02   97,4 [7D270FC5] [B7CFCE7A]
 03  100,0 [E6FCD257] [8CE7559C]
 04   98,5 [D260818C] [F34D0814]
 05   99,9 [98F04AFF] [B8220E12]
 06   91,2 [8E90396D] [F0391255]
 07  100,0 [EF0C37DB] [9DE43C33]
 08  100,0 [3577BD57] [13C057F2]
 09  100,0 [162A6ACB] [7F8F2D94]
 10  100,0 [B7E9362E] [6BC0B998]
 11   93,8 [9F909453] [DA3A17B5]
 12  100,0 [3E6F28E0] [D3E911E7]
Eleven Kinds of Loneliness, US Long Box Edition
Особенности издания: Коллекционное издание альбома в длинной картонной коробке.
Год выпуска: 1992
Лейбл: Reprise
Номер по каталогу: 9 26835-2
Страна-производитель: США
Продолжительноcть: 00:43:32

Треклиcт:
01. You Make The Whole World Cry 3.38
02. Elephant 3.58
03. Trouble 3.55
04. I Grant You 2.30
05. Heal You 4.25
06. To Drink The Rainbow 3.20
07. Out On The Town 3.15
08. Hot Stones 2.58
09. Men and Women 3.08
10. Any Reason 3.36
11. Love Don't Need No Tyranny 5.01
12. The Way That I Want You 3.44
Код: выделить все

X Lossless Decoder version 20110611 (135.0)

XLD extraction logfile from 2011-07-10 10:46:19 +0100

Tanita Tikaram / Eleven Kinds Of Loneliness

Used drive : HL-DT-ST DVD-RW GH61N (revision PA03)

Ripper mode             : CDParanoia III 10.2
Disable audio cache     : OK for the drive with a cache less than 2750KiB
Make use of C2 pointers : NO
Read offset correction  : 667
Max retry count         : 100
Gap status              : Analyzed, Appended

TOC of the extracted CD
     Track |   Start  |  Length  | Start sector | End sector
    ---------------------------------------------------------
        1  | 00:00:00 | 03:38:05 |         0    |    16354
        2  | 03:38:05 | 03:58:65 |     16355    |    34269
        3  | 07:36:70 | 03:55:07 |     34270    |    51901
        4  | 11:32:02 | 02:30:70 |     51902    |    63221
        5  | 14:02:72 | 04:25:73 |     63222    |    83169
        6  | 18:28:70 | 03:20:15 |     83170    |    98184
        7  | 21:49:10 | 03:15:72 |     98185    |   112881
        8  | 25:05:07 | 02:58:70 |    112882    |   126301
        9  | 28:04:02 | 03:08:55 |    126302    |   140456
       10  | 31:12:57 | 03:36:35 |    140457    |   156691
       11  | 34:49:17 | 05:01:25 |    156692    |   179291
       12  | 39:50:42 | 03:44:53 |    179292    |   196144

AccurateRip Summary
    Track 01 : OK (confidence 22)
    Track 02 : OK (confidence 21)
    Track 03 : OK (confidence 20)
    Track 04 : OK (confidence 21)
    Track 05 : OK (confidence 22)
    Track 06 : OK (confidence 21)
    Track 07 : OK (confidence 20)
    Track 08 : OK (confidence 21)
    Track 09 : OK (confidence 21)
    Track 10 : OK (confidence 21)
    Track 11 : OK (confidence 21)
    Track 12 : OK (confidence 21)
        ->All tracks accurately ripped.

All Tracks
    Album gain             : -1.90 dB
    Peak                   : 1.000000
    Statistics
        Read error                           : 0
        Skipped (treated as error)           : 0
        Edge jitter error (maybe fixed)      : 0
        Atom jitter error (maybe fixed)      : 0
        Drift error (maybe fixed)            : 0
        Dropped bytes error (maybe fixed)    : 0
        Duplicated bytes error (maybe fixed) : 0

Track 01
    Filename : /Volumes/Data/Music/!!!_Ripped/01 - You Make The Whole World Cry.flac
    Pre-gap length : 00:02:00

    Track gain             : -2.29 dB
    Peak                   : 0.961060
    CRC32 hash (test run)  : 45E17C7C
    CRC32 hash             : 45E17C7C
    CRC32 hash (skip zero) : 698573FD
    AccurateRip signature  : 71F6FAD2
        ->Accurately ripped! (confidence 22)
    Statistics
        Read error                           : 0
        Skipped (treated as error)           : 0
        Edge jitter error (maybe fixed)      : 0
        Atom jitter error (maybe fixed)      : 0
        Drift error (maybe fixed)            : 0
        Dropped bytes error (maybe fixed)    : 0
        Duplicated bytes error (maybe fixed) : 0
        Inconsistency in error sectors       : 0

Track 02
    Filename : /Volumes/Data/Music/!!!_Ripped/02 - Elephant.flac
    Pre-gap length : 00:00:10

    Track gain             : 0.19 dB
    Peak                   : 0.974091
    CRC32 hash (test run)  : D839516F
    CRC32 hash             : D839516F
    CRC32 hash (skip zero) : A1A074E3
    AccurateRip signature  : 20CFB957
        ->Accurately ripped! (confidence 21)
    Statistics
        Read error                           : 0
        Skipped (treated as error)           : 0
        Edge jitter error (maybe fixed)      : 0
        Atom jitter error (maybe fixed)      : 0
        Drift error (maybe fixed)            : 0
        Dropped bytes error (maybe fixed)    : 0
        Duplicated bytes error (maybe fixed) : 0
        Inconsistency in error sectors       : 0

Track 03
    Filename : /Volumes/Data/Music/!!!_Ripped/03 - Trouble.flac

    Track gain             : -3.12 dB
    Peak                   : 1.000000
    CRC32 hash (test run)  : 5C48FB26
    CRC32 hash             : 5C48FB26
    CRC32 hash (skip zero) : 61F8E308
    AccurateRip signature  : F53F53DE
        ->Accurately ripped! (confidence 20)
    Statistics
        Read error                           : 0
        Skipped (treated as error)           : 0
        Edge jitter error (maybe fixed)      : 0
        Atom jitter error (maybe fixed)      : 0
        Drift error (maybe fixed)            : 0
        Dropped bytes error (maybe fixed)    : 0
        Duplicated bytes error (maybe fixed) : 0
        Inconsistency in error sectors       : 0

Track 04
    Filename : /Volumes/Data/Music/!!!_Ripped/04 - I Grant You.flac

    Track gain             : -1.37 dB
    Peak                   : 0.985779
    CRC32 hash (test run)  : AF461BC9
    CRC32 hash             : AF461BC9
    CRC32 hash (skip zero) : 841306E3
    AccurateRip signature  : D9E8D11B
        ->Accurately ripped! (confidence 21)
    Statistics
        Read error                           : 0
        Skipped (treated as error)           : 0
        Edge jitter error (maybe fixed)      : 0
        Atom jitter error (maybe fixed)      : 0
        Drift error (maybe fixed)            : 0
        Dropped bytes error (maybe fixed)    : 0
        Duplicated bytes error (maybe fixed) : 0
        Inconsistency in error sectors       : 0

Track 05
    Filename : /Volumes/Data/Music/!!!_Ripped/05 - Heal You.flac

    Track gain             : 0.34 dB
    Peak                   : 0.999756
    CRC32 hash (test run)  : BCED35C0
    CRC32 hash             : BCED35C0
    CRC32 hash (skip zero) : 523DE9B5
    AccurateRip signature  : 684C751F
        ->Accurately ripped! (confidence 22)
    Statistics
        Read error                           : 0
        Skipped (treated as error)           : 0
        Edge jitter error (maybe fixed)      : 0
        Atom jitter error (maybe fixed)      : 0
        Drift error (maybe fixed)            : 0
        Dropped bytes error (maybe fixed)    : 0
        Duplicated bytes error (maybe fixed) : 0
        Inconsistency in error sectors       : 0

Track 06
    Filename : /Volumes/Data/Music/!!!_Ripped/06 - To Drink The Rainbow.flac

    Track gain             : -0.55 dB
    Peak                   : 0.912109
    CRC32 hash (test run)  : 191D41D7
    CRC32 hash             : 191D41D7
    CRC32 hash (skip zero) : 040CE8D2
    AccurateRip signature  : E4E31EA0
        ->Accurately ripped! (confidence 21)
    Statistics
        Read error                           : 0
        Skipped (treated as error)           : 0
        Edge jitter error (maybe fixed)      : 0
        Atom jitter error (maybe fixed)      : 0
        Drift error (maybe fixed)            : 0
        Dropped bytes error (maybe fixed)    : 0
        Duplicated bytes error (maybe fixed) : 0
        Inconsistency in error sectors       : 0

Track 07
    Filename : /Volumes/Data/Music/!!!_Ripped/07 - Out On The Town.flac
    Pre-gap length : 00:00:70

    Track gain             : -3.20 dB
    Peak                   : 1.000000
    CRC32 hash (test run)  : 51E60C1C
    CRC32 hash             : 51E60C1C
    CRC32 hash (skip zero) : CC5A46DA
    AccurateRip signature  : 41A05935
        ->Accurately ripped! (confidence 20)
    Statistics
        Read error                           : 0
        Skipped (treated as error)           : 0
        Edge jitter error (maybe fixed)      : 0
        Atom jitter error (maybe fixed)      : 0
        Drift error (maybe fixed)            : 0
        Dropped bytes error (maybe fixed)    : 0
        Duplicated bytes error (maybe fixed) : 0
        Inconsistency in error sectors       : 0

Track 08
    Filename : /Volumes/Data/Music/!!!_Ripped/08 - Hot Stones.flac

    Track gain             : -1.09 dB
    Peak                   : 0.999969
    CRC32 hash (test run)  : 4AE9C23C
    CRC32 hash             : 4AE9C23C
    CRC32 hash (skip zero) : 5FD3D43D
    AccurateRip signature  : EE027B74
        ->Accurately ripped! (confidence 21)
    Statistics
        Read error                           : 0
        Skipped (treated as error)           : 0
        Edge jitter error (maybe fixed)      : 0
        Atom jitter error (maybe fixed)      : 0
        Drift error (maybe fixed)            : 0
        Dropped bytes error (maybe fixed)    : 0
        Duplicated bytes error (maybe fixed) : 0
        Inconsistency in error sectors       : 0

Track 09
    Filename : /Volumes/Data/Music/!!!_Ripped/09 - Men and Women.flac

    Track gain             : 0.71 dB
    Peak                   : 1.000000
    CRC32 hash (test run)  : 4EC2987E
    CRC32 hash             : 4EC2987E
    CRC32 hash (skip zero) : 330895CF
    AccurateRip signature  : F923A523
        ->Accurately ripped! (confidence 21)
    Statistics
        Read error                           : 0
        Skipped (treated as error)           : 0
        Edge jitter error (maybe fixed)      : 0
        Atom jitter error (maybe fixed)      : 0
        Drift error (maybe fixed)            : 0
        Dropped bytes error (maybe fixed)    : 0
        Duplicated bytes error (maybe fixed) : 0
        Inconsistency in error sectors       : 0

Track 10
    Filename : /Volumes/Data/Music/!!!_Ripped/10 - Any Reason.flac
    Pre-gap length : 00:00:19

    Track gain             : -1.26 dB
    Peak                   : 0.999969
    CRC32 hash (test run)  : 1BBC670B
    CRC32 hash             : 1BBC670B
    CRC32 hash (skip zero) : FA9B242E
    AccurateRip signature  : 182E0BFB
        ->Accurately ripped! (confidence 21)
    Statistics
        Read error                           : 0
        Skipped (treated as error)           : 0
        Edge jitter error (maybe fixed)      : 0
        Atom jitter error (maybe fixed)      : 0
        Drift error (maybe fixed)            : 0
        Dropped bytes error (maybe fixed)    : 0
        Duplicated bytes error (maybe fixed) : 0
        Inconsistency in error sectors       : 0

Track 11
    Filename : /Volumes/Data/Music/!!!_Ripped/11 - Love Don't Need No Tyranny.flac

    Track gain             : -2.67 dB
    Peak                   : 0.938110
    CRC32 hash (test run)  : C4F0F757
    CRC32 hash             : C4F0F757
    CRC32 hash (skip zero) : 4039058B
    AccurateRip signature  : B38E19A9
        ->Accurately ripped! (confidence 21)
    Statistics
        Read error                           : 0
        Skipped (treated as error)           : 0
        Edge jitter error (maybe fixed)      : 0
        Atom jitter error (maybe fixed)      : 0
        Drift error (maybe fixed)            : 0
        Dropped bytes error (maybe fixed)    : 0
        Duplicated bytes error (maybe fixed) : 0
        Inconsistency in error sectors       : 0

Track 12
    Filename : /Volumes/Data/Music/!!!_Ripped/12 - The Way That I Want You.flac
    Pre-gap length : 00:01:22

    Track gain             : 7.67 dB
    Peak                   : 0.891235
    CRC32 hash (test run)  : 7B1E5C23
    CRC32 hash             : 7B1E5C23
    CRC32 hash (skip zero) : 7304B9D4
    AccurateRip signature  : 0E8E682C
        ->Accurately ripped! (confidence 21)
    Statistics
        Read error                           : 0
        Skipped (treated as error)           : 0
        Edge jitter error (maybe fixed)      : 0
        Atom jitter error (maybe fixed)      : 0
        Drift error (maybe fixed)            : 0
        Dropped bytes error (maybe fixed)    : 0
        Duplicated bytes error (maybe fixed) : 0
        Inconsistency in error sectors       : 0

No errors occurred

End of status report
потрековый:
Код: выделить все

-----------------------

DON'T MODIFY THIS FILE

-----------------------

PERFORMER: auCDtect Task Manager, ver. 1.5.1RC6 build 1.5.1.7
Copyright (c) 2008-2010 y-soft. All rights reserved
http://y-soft.org

ANALYZER: auCDtect: CD records authenticity detector, version 0.8.2
Copyright (c) 2004 Oleg Berngardt. All rights reserved.
Copyright (c) 2004 Alexander Djourik. All rights reserved.

FILE: 12 The Way That I Want You.wav
  Size: 39638300 Hash: 6143099527D4C2774FEFB226E37D8820 Accuracy: -m0
  Conclusion: CDDA 100%
  Signature: C57607454C81BCB74F4381EC3FAF36DBE4ED20D3
FILE: 11 Love Don't Need No Tyranny.wav
  Size: 53155244 Hash: 7D15F38442EED4228C85BF6D8B7ED960 Accuracy: -m0
  Conclusion: CDDA 100%
  Signature: A4514A8D70ACCE46B949D5CDE3FDF1BA65A16F58
FILE: 10 Any Reason.wav
  Size: 38184764 Hash: 61C47E6A22D9E02FE7DA7603D6863CE3 Accuracy: -m0
  Conclusion: CDDA 100%
  Signature: 1117329FA9EF2881A5FFB1EF42CE73B9B7B4B682
FILE: 09 Men and Women.wav
  Size: 33292604 Hash: 759A8DD39F87F95B0070F4AD51FEC12C Accuracy: -m0
  Conclusion: CDDA 100%
  Signature: 5BD6168832DF5CE2C2E8E96A9B7C3D1858A1381D
FILE: 08 Hot Stones.wav
  Size: 31563884 Hash: AE37C437CF0D85855CEB98EEAB2CDE0D Accuracy: -m0
  Conclusion: CDDA 100%
  Signature: 197AEA4165765DCCCFCE8A5F30F41F7081FC3200
FILE: 07 Out On The Town.wav
  Size: 34567388 Hash: 4FBE376A6101EB3F01D6C6E32A46D58A Accuracy: -m0
  Conclusion: MPEG 95%
  Signature: 635FB0372BBC383EF92C58FAEB328C082D6AE582
FILE: 06 To Drink The Rainbow.wav
  Size: 35315324 Hash: DF556976E64ECDEC13BF756FD023C664 Accuracy: -m0
  Conclusion: CDDA 100%
  Signature: 118B1E82352FADBDCD820AABB40991A2D0729C4B
FILE: 05 Heal You.wav
  Size: 46917740 Hash: 5BEA9C5BD636F56DBF9D319363D2FA10 Accuracy: -m0
  Conclusion: CDDA 100%
  Signature: 055F92D6A1024E8C60911AEE8485C96F40C8EB47
FILE: 04 I Grant You.wav
  Size: 26624684 Hash: 3D93D6F70A541FD6802E9523E348EA69 Accuracy: -m0
  Conclusion: CDDA 100%
  Signature: 0113352F5424FAE8710885C207EDBAA1C7C9E36E
FILE: 03 Trouble.wav
  Size: 41470508 Hash: B6520CEF655CADDC4621B0A86D362C84 Accuracy: -m0
  Conclusion: CDDA 100%
  Signature: C0355978EC05562E74D33D8DDD1081FADA4B600B
FILE: 02 Elephant.wav
  Size: 42136124 Hash: EE2EFE211065E6ABB7673271BA8E6B95 Accuracy: -m0
  Conclusion: CDDA 100%
  Signature: 347957C6CBB3BFA226861A2F20D43E408F5685D0
FILE: 01 You Make The Whole World Cry.wav
  Size: 38467004 Hash: 98AC25C1911EA17F305B63C881E3F0BC Accuracy: -m0
  Conclusion: CDDA 100%
  Signature: 678BFE7339B9236F7491D36DACD7EB738C025C73


Код: выделить все

-----------------------

DON'T MODIFY THIS FILE

-----------------------

PERFORMER: auCDtect Task Manager, ver. 1.5.1RC6 build 1.5.1.7
Copyright (c) 2008-2010 y-soft. All rights reserved
http://y-soft.org

ANALYZER: auCDtect: CD records authenticity detector, version 0.8.2
Copyright (c) 2004 Oleg Berngardt. All rights reserved.
Copyright (c) 2004 Alexander Djourik. All rights reserved.

FILE: Tanita Tikaram - Eleven Kinds Of Loneliness.flac
  Size: 252879955 Hash: 1C1C422DD902B149D587194BDE7C2321 Accuracy: -m0
  Conclusion: MPEG 95%
  Signature: 7A57E9C0B3B44A879864AC3E574CD58CC1AB3327

Код: выделить все
[CUETools log; Date: 27.05.2012 12:58:48; Version: 2.1.4]
[AccurateRip ID: 0013357a-00b2c153-950a370c] found.
Track   [  CRC   |   V2   ] Status
 01     [71f6fad2|e7bf718d] (21+00/21) Accurately ripped
 02     [20cfb957|a036890a] (20+00/20) Accurately ripped
 03     [f53f53de|a8803624] (19+00/19) Accurately ripped
 04     [d9e8d11b|e84bb603] (20+00/20) Accurately ripped
 05     [684c751f|c4f74fd3] (21+00/21) Accurately ripped
 06     [e4e31ea0|02b138df] (20+00/20) Accurately ripped
 07     [41a05935|f09a38fe] (19+00/19) Accurately ripped
 08     [ee027b74|e910e028] (20+00/20) Accurately ripped
 09     [f923a523|249a492b] (20+00/20) Accurately ripped
 10     [182e0bfb|b1021480] (20+00/20) Accurately ripped
 11     [b38e19a9|ce3edb3a] (20+00/20) Accurately ripped
 12     [0e8e682c|84ceb49f] (20+00/20) Accurately ripped

Track Peak [ CRC32  ] [W/O NULL]
 --  100,0 [91B245C3] [1316F89B]
 01   96,1 [45E17C7C] [698573FD]
 02   97,4 [D839516F] [A1A074E3]
 03  100,0 [5C48FB26] [61F8E308]
 04   98,5 [AF461BC9] [841306E3]
 05   99,9 [BCED35C0] [523DE9B5]
 06   91,2 [191D41D7] [040CE8D2]
 07  100,0 [51E60C1C] [CC5A46DA]
 08  100,0 [4AE9C23C] [5FD3D43D]
 09  100,0 [4EC2987E] [330895CF]
 10  100,0 [1BBC670B] [FA9B242E]
 11   93,8 [C4F0F757] [4039058B]
 12   89,1 [7B1E5C23] [7304B9D4]
Год выпуска: 1995
Производитель диска: USA
Продолжительноcть: 00:52:07

Треклиcт:
01 I Might Be Crying (3:56)
02 Bloodlines (4:14)
03 Feeding The Witches (5:15)
04 Happy Taxi (5:42)
05 My Love Tonight (4:36)
06 Lovers In The City (6:23)
07 Yodelling Song (3:35)
08 Wonderful Shadow (6:12)
09 Women Who Cheat On The World (5:09)
10 Leaving The Party (7:05)
Код: выделить все

Exact Audio Copy V0.99 prebeta 4 from 23. January 2008

Отчёт EAC об извлечении, выполненном 13. января 2009, 13:30

Tanita Tikaram / Lovers In The City

Дисковод: ASUS    DRW-1608P   Adapter: 2  ID: 0

Режим чтения                 : Достоверность
Использование точного потока : Да
Отключение кэша аудио        : Да
Использование указателей C2  : Нет

Коррекция смещения при чтении                     : 48
Способность читать области Lead-in и Lead-out     : Нет
Заполнение пропущенных сэмплов тишиной            : Да
Удаление блоков с тишиной в начале и конце        : Нет
При вычислениях CRC использовались нулевые сэмплы : Да
Интерфейс                                         : Встроенный Win32-интерфейс для Win NT/2000

Выходной формат : Внутренние WAV-операции
Формат сэмплов  : 44.100 Гц; 16 бит; стерео

TOC извлечённого CD

     Трек |   Старт  | Длительность | Начальный сектор | Конечный сектор
    ---------------------------------------------------------------------
       1  |  0:00.00 |    3:56.10   |           0      |      17709
       2  |  3:56.10 |    4:13.50   |       17710      |      36734
       3  |  8:09.60 |    5:15.37   |       36735      |      60396
       4  | 13:25.22 |    5:41.60   |       60397      |      86031
       5  | 19:07.07 |    4:35.70   |       86032      |     106726
       6  | 23:43.02 |    6:23.35   |      106727      |     135486
       7  | 30:06.37 |    3:34.53   |      135487      |     151589
       8  | 33:41.15 |    6:11.40   |      151590      |     179454
       9  | 39:52.55 |    5:08.60   |      179455      |     202614
      10  | 45:01.40 |    7:05.00   |      202615      |     234489

Характеристики диапазона извлечения и сообщения об ошибках

Выбранный диапазон

     Имя файла F:\Tanita Tikaram\Tanita Tikaram - Lovers In The City.wav

     Пиковый уровень 97.7 %
     Качество диапазона 100.0 %
     CRC теста 74D5F59D
     CRC копии 74D5F59D
     Копирование... OK

Ошибок не произошло

AccurateRip: сводка

Трек  1  точность не определена (достоверность 3)  [2096486E], AccurateRip вернул [EFF70F3E]
Трек  2  точность не определена (достоверность 3)  [5977D8C3], AccurateRip вернул [BC024508]
Трек  3  точность не определена (достоверность 3)  [B76A1225], AccurateRip вернул [CEAC6D31]
Трек  4  точность не определена (достоверность 3)  [600EF01A], AccurateRip вернул [78A58E44]
Трек  5  точность не определена (достоверность 3)  [341D59F9], AccurateRip вернул [64715C38]
Трек  6  точность не определена (достоверность 3)  [47639A82], AccurateRip вернул [5370C55F]
Трек  7  точность не определена (достоверность 3)  [5F5F2A8E], AccurateRip вернул [756C4176]
Трек  8  точность не определена (достоверность 3)  [EC24332C], AccurateRip вернул [BAFCA1BC]
Трек  9  точность не определена (достоверность 2)  [9C2C4B8C], AccurateRip вернул [5766A12F]
Трек 10  точность не определена (достоверность 3)  [B5387B9A], AccurateRip вернул [7A7AB9F8]

Ни один трек не прошёл проверки на точность
В вашей базе может быть иной вариант штамповки диска

Конец отчёта
Код: выделить все

-----------------------

DON'T MODIFY THIS FILE

-----------------------

PERFORMER: auCDtect Task Manager, ver. 1.5.1RC6 build 1.5.1.7
Copyright (c) 2008-2010 y-soft. All rights reserved
http://y-soft.org

ANALYZER: auCDtect: CD records authenticity detector, version 0.8.2
Copyright (c) 2004 Oleg Berngardt. All rights reserved.
Copyright (c) 2004 Alexander Djourik. All rights reserved.

FILE: Tanita Tikaram - Lovers In The City.flac
  Size: 303623238 Hash: D4078038BCC1F3514094800F3AE6AE25 Accuracy: -m0
  Conclusion: CDDA 99%
  Signature: C1ECFD3E67A565CD3AD508A5C7BE5D679AEB43EB

[CUETools log; Date: 27.05.2012 11:52:04; Version: 2.1.4]
[CTDB TOCID: ZkuQ9g4qInt9OTs3azKEpxOZc7c-] found.
Track | CTDB Status
1 | (2/2) Accurately ripped
2 | (2/2) Accurately ripped
3 | (2/2) Accurately ripped
4 | (2/2) Accurately ripped
5 | (2/2) Accurately ripped
6 | (2/2) Accurately ripped
7 | (2/2) Accurately ripped
8 | (2/2) Accurately ripped
9 | (2/2) Accurately ripped
10 | (2/2) Accurately ripped
[AccurateRip ID: 00127b66-0096238c-7d0c360a] found.
Track [ CRC | V2 ] Status
01 [2096486e|aa7c2fdf] (06+00/10) Accurately ripped
02 [5977d8c3|14381be7] (06+00/10) Accurately ripped
03 [b76a1225|1dafdb0e] (06+00/10) Accurately ripped
04 [600ef01a|37f05f09] (06+00/10) Accurately ripped
05 [341d59f9|1637796f] (06+00/10) Accurately ripped
06 [47639a82|4fe3af92] (06+00/10) Accurately ripped
07 [5f5f2a8e|86bd9b9c] (07+00/11) Accurately ripped
08 [ec24332c|b99c7e43] (06+00/10) Accurately ripped
09 [9c2c4b8c|4cb7fdaf] (06+00/09) Accurately ripped
10 [b5387b9a|1cba74c8] (06+00/10) Accurately ripped
Offsetted by 1171:
01 [eff70f3e] (04/10) Accurately ripped
02 [bc024508] (04/10) Accurately ripped
03 [ceac6d31] (04/10) Accurately ripped
04 [78a58e44] (04/10) Accurately ripped
05 [64715c38] (04/10) Accurately ripped
06 [5370c55f] (04/10) Accurately ripped
07 [756c4176] (04/11) Accurately ripped
08 [bafca1bc] (04/10) Accurately ripped
09 [5766a12f] (03/09) Accurately ripped
10 [7a7ab9f8] (04/10) Accurately ripped

Track Peak [ CRC32 ] [W/O NULL] [ LOG ]
-- 97,7 [74D5F59D] [F443E245] CRC32
01 97,7 [ABD419CB] [521D53C9]
02 79,7 [E93128F0] [6AEB589A]
03 96,6 [B8CBA169] [38E155BD]
04 81,8 [4CFAAC90] [3E4931CA]
05 97,6 [DD1CAD34] [EDEB38F3]
06 87,2 [0153185C] [E7A128D3]
07 94,8 [D5D1CF7D] [D393B3B3]
08 97,7 [A5C95BA5] [96611AFE]
09 91,3 [4657D95E] [9B39352A]
10 97,7 [40E02FAC] [BC95FE08]
Год выпуска: 1998
Продолжительноcть: 00:41:18

Треклиcт:
01. Stop Listening [4:24]
02. Light Up My World [3:36]
03. Amore Si [4:02]
04. Back In Yours Arms [4:01]
05. The Cappuccino Song [3:51]
06. I Don't Wanna Lose At Love [4:20]
07. The Day Before You Came [4:25]
08. If I Ever [3:42]
09. I Like This [3:58]
10. I Knew You [4:59]
Код: выделить все

Exact Audio Copy V0.99 prebeta 4 from 23. January 2008

Отчёт EAC об извлечении, выполненном 5. января 2009, 14:00

Tanita Tikaram / The Cappuccino Songs

Дисковод: PIONEER DVD-RW  DVR-111L   Adapter: 3  ID: 0

Режим чтения                 : Достоверность
Использование точного потока : Да
Отключение кэша аудио        : Да
Использование указателей C2  : Нет

Коррекция смещения при чтении                     : 48
Способность читать области Lead-in и Lead-out     : Нет
Заполнение пропущенных сэмплов тишиной            : Да
Удаление блоков с тишиной в начале и конце        : Нет
При вычислениях CRC использовались нулевые сэмплы : Да
Интерфейс                                         : Встроенный Win32-интерфейс для Win NT/2000

Выходной формат : Внутренние WAV-операции
Формат сэмплов  : 44.100 Гц; 16 бит; стерео

TOC извлечённого CD

     Трек |   Старт  | Длительность | Начальный сектор | Конечный сектор
    ---------------------------------------------------------------------
       1  |  0:00.00 |    4:23.72   |           0      |      19796
       2  |  4:23.72 |    3:36.23   |       19797      |      36019
       3  |  8:00.20 |    4:02.32   |       36020      |      54201
       4  | 12:02.52 |    4:01.03   |       54202      |      72279
       5  | 16:03.55 |    3:50.50   |       72280      |      89579
       6  | 19:54.30 |    4:20.15   |       89580      |     109094
       7  | 24:14.45 |    4:25.17   |      109095      |     128986
       8  | 28:39.62 |    3:41.50   |      128987      |     145611
       9  | 32:21.37 |    3:58.18   |      145612      |     163479
      10  | 36:19.55 |    4:58.65   |      163480      |     185894

Характеристики диапазона извлечения и сообщения об ошибках

Выбранный диапазон

     Имя файла E:\Audio\Tanita Tikaram - The Cappuccino Songs.wav

     Пиковый уровень 94.4 %
     Качество диапазона 100.0 %
     CRC копии 75B56BB7
     Копирование... OK

Ошибок не произошло

Конец отчёта
Код: выделить все

-----------------------

DON'T MODIFY THIS FILE

-----------------------

PERFORMER: auCDtect Task Manager, ver. 1.5.1RC6 build 1.5.1.7
Copyright (c) 2008-2010 y-soft. All rights reserved
http://y-soft.org

ANALYZER: auCDtect: CD records authenticity detector, version 0.8.2
Copyright (c) 2004 Oleg Berngardt. All rights reserved.
Copyright (c) 2004 Alexander Djourik. All rights reserved.

FILE: Tanita Tikaram - The Cappuccino Songs.flac
  Size: 277878070 Hash: 7B8A916B4EE33DBEA6B2B21C448DB20B Accuracy: -m0
  Conclusion: CDDA 100%
  Signature: B35A82E15C26D85F1FA96E0FA5585AA2CAC7B3B6

[CUETools log; Date: 27.05.2012 11:52:25; Version: 2.1.4]
[CTDB TOCID: DiKU5U0pBqcHYEJdSQpYAdG241A-] found.
Track | CTDB Status
1 | (5/5) Accurately ripped
2 | (5/5) Accurately ripped
3 | (5/5) Accurately ripped
4 | (5/5) Accurately ripped
5 | (5/5) Accurately ripped
6 | (5/5) Accurately ripped
7 | (5/5) Accurately ripped
8 | (5/5) Accurately ripped
9 | (5/5) Accurately ripped
10 | (5/5) Accurately ripped
[AccurateRip ID: 000f5594-007ad1a1-8709ae0a] found.
Track [ CRC | V2 ] Status
01 [cff0eedf|16e5d77c] (07+00/52) Accurately ripped
02 [8f8d69c1|431b94f6] (07+00/52) Accurately ripped
03 [f44f2906|4033e17e] (07+00/52) Accurately ripped
04 [e69afcc7|e6bc13e5] (07+00/51) Accurately ripped
05 [71bdac2f|1b1ddd5a] (06+00/50) Accurately ripped
06 [d8e575c6|dd95051f] (07+00/51) Accurately ripped
07 [fcc1b9d7|99c30536] (08+00/53) Accurately ripped
08 [4e87abcd|92712fb8] (06+00/51) Accurately ripped
09 [5278c118|3fa5d5fb] (07+00/52) Accurately ripped
10 [cd540792|b1d46e5d] (06+00/50) Accurately ripped
Offsetted by 659:
01 [7dc0c590] (36/52) Accurately ripped
02 [47ea95d1] (36/52) Accurately ripped
03 [3d5680e2] (36/52) Accurately ripped
04 [453737e3] (35/51) Accurately ripped
05 [554a3a82] (35/50) Accurately ripped
06 [04c0a791] (36/51) Accurately ripped
07 [1dc7bd2e] (36/53) Accurately ripped
08 [c4292ee8] (36/51) Accurately ripped
09 [0001fb5b] (36/52) Accurately ripped
10 [46aa9698] (35/50) Accurately ripped

Track Peak [ CRC32 ] [W/O NULL] [ LOG ]
-- 94,4 [75B56BB7] [6527E0B7] CRC32
01 94,4 [268FC2F2] [3E7496CB]
02 94,4 [80CA3B46] [437455C2]
03 94,4 [01445304] [01D6AD0C]
04 94,4 [B5339477] [FACDF457]
05 94,4 [05F535E9] [979E0287]
06 94,4 [46D86446] [A5A246C2]
07 94,4 [A80DFF2C] [2478AEA3]
08 94,4 [2CB4F993] [9F44089A]
09 94,4 [A359DC15] [A8E8D5C2]
10 94,4 [C10C13FE] [8BFBCB73]
Image
Год выпуска: 2005
Продолжительноcть: 00:41:04

Треклиcт:
01. Something New (4:55)
02. Play Me Again (3:53)
03. My Love (4:04)
04. Don't Shake Me Up (2:59)
05. Everyday Is New (4:56)
06. Love Is Just A Word (3:44)
07. Don't Let The Cold (3:13)
08. Forever (3:39)
09. Got To Give You Up (3:54)
10. Heart In Winter (4:54)
Код: выделить все

EAC extraction logfile from 19. September 2005, 13:22 for CD
Tanita Tikaram / Sentimental

Used drive  : LITE-ON DVD SOHD-167T   Adapter: 3  ID: 1
Read mode   : Secure with NO C2, accurate stream, disable cache
Read offset correction : 12
Overread into Lead-In and Lead-Out : No

Used output format : Internal WAV Routines
                     44.100 Hz; 16 Bit; Stereo

Other options      :
    Fill up missing offset samples with silence : Yes
    Delete leading and trailing silent blocks : No
    Installed external ASPI interface

Range status and errors
Selected range
     Filename D:\Tmp\Tanita Tikaram - Sentimental.wav

     Peak level 99.4 %
     Range quality 100.0 %
     CRC 59CF1813
     Copy OK

No errors occured

End of status report
Код: выделить все

-----------------------

DON'T MODIFY THIS FILE

-----------------------

PERFORMER: auCDtect Task Manager, ver. 1.5.1RC6 build 1.5.1.7
Copyright (c) 2008-2010 y-soft. All rights reserved
http://y-soft.org

ANALYZER: auCDtect: CD records authenticity detector, version 0.8.2
Copyright (c) 2004 Oleg Berngardt. All rights reserved.
Copyright (c) 2004 Alexander Djourik. All rights reserved.

FILE: Tanita Tikaram - Sentimental.flac
  Size: 210925054 Hash: E8A35B0AD4AB9777264D0A5DE2D401EB Accuracy: -m0
  Conclusion: CDDA 100%
  Signature: 8DB90EDA0A8EE2A6DB53A1A9A30B44A4090FE457

Код: выделить все
[CUETools log; Date: 27.05.2012 13:25:29; Version: 2.1.4]
[AccurateRip ID: 000f42c4-0078fc6b-95096a0a] found.
Track   [  CRC   |   V2   ] Status
 01     [63dda67b|4b4dc8f9] (05+00/41) Accurately ripped
 02     [38bad32c|98048774] (05+00/41) Accurately ripped
 03     [02b7a527|fe864b37] (05+00/41) Accurately ripped
 04     [28146b60|69830e47] (05+00/41) Accurately ripped
 05     [a7d234f0|c731bb72] (05+00/41) Accurately ripped
 06     [c24a2839|db06e8e7] (05+00/41) Accurately ripped
 07     [c06ea363|f8fef815] (05+00/41) Accurately ripped
 08     [bbdeb993|18ed897b] (05+00/41) Accurately ripped
 09     [2a59ac67|e495f8da] (05+00/41) Accurately ripped
 10     [91610807|4ef2bfbd] (04+00/40) Accurately ripped
Offsetted by 664:
 01     [868ea7af] (23/41) Accurately ripped
 02     [fc79d928] (23/41) Accurately ripped
 03     [1d297c8f] (23/41) Accurately ripped
 04     [40beeb00] (23/41) Accurately ripped
 05     [edc3ced0] (23/41) Accurately ripped
 06     [853dc131] (23/41) Accurately ripped
 07     [b70dba23] (23/41) Accurately ripped
 08     [25a9040b] (23/41) Accurately ripped
 09     [447345bf] (23/41) Accurately ripped
 10     [d2762b47] (00/40) No match (V2 was not tested)
Offsetted by 1257:
 01     [5d637610] (07/41) Accurately ripped
 02     [32df05b8] (07/41) Accurately ripped
 03     [377a55fe] (07/41) Accurately ripped
 04     [02572f7c] (07/41) Accurately ripped
 05     [4dc59964] (07/41) Accurately ripped
 06     [31ce0d46] (07/41) Accurately ripped
 07     [bc2bff6b] (07/41) Accurately ripped
 08     [3ae2b030] (07/41) Accurately ripped
 09     [668dfd58] (07/41) Accurately ripped
 10     [db9f05bf] (00/40) No match (V2 was not tested)

Track Peak [ CRC32  ] [W/O NULL] [  LOG   ]
 --   99,4 [1B7AB9DF] [EEDD6C5A] [59CF1813]
 01   89,1 [86A80F67] [218A22C4]
 02   98,8 [3A7358F4] [729CC0E5]
 03   99,3 [D883A0A4] [5AEAA0E5]
 04   99,3 [A88FC2B9] [E2F450B3]
 05   99,3 [E2F5ED82] [06568A4B]
 06   79,4 [999FE46C] [80FAF570]
 07   99,4 [2F2DB0DD] [B23F5A68]
 08   88,5 [6946A37E] [1F9BDF77]
 09   99,3 [1D0E613D] [D81B2CC0]
 10   88,5 [4EAE44D8] [E40CA13D]
Рипы альбомов 1988 - Ancient Heart и 1992 - Eleven Kinds Of Loneliness не прошли проверку с помощью auCDtect Task manager-а. С помощью foobar-а разжимал потреково и отдельно проверял, специально выложил рипы других изданий. Результаты в соответствующих спойлерах (несовершенство алгоритма проверки).



Поглощение/вытеснение
Только с согласия релизера

DesideriuM

Реставрация релиза: Pashketan
[NNM-Club.ru]_Tanita Tikaram.torrent
 Торрент: Платиновая раздача  Зарегистрирован
 
Скачать


 Зарегистрирован:   27 Май 2012 16:13:51
 Размер:   2.3 GB  (
 Рейтинг:   4.6 (Голосов: 29)
 Поблагодарили:   137
 Проверка:   Оформление проверено модератором 30 Май 2012 19:04:30
Как cкачать  ·  Как раздать  ·  Правильно оформить  ·  Поднять ратио!  
StirlitzZ
Стаж: 14 лет 1 мес.
Сообщений: 224
Ratio: 19.132
Раздал: 2.2 TB
Поблагодарили: 5608
100%
russia.gif
Огромнейшее спасибо! Недавно услышал "Twist In My Sobriety" по радио, захотелось вновь услышать почти совсем позабытый мною альбом (равно как и исполнительницу) "Ancient Heart". Дамы и господа, это живая классика и обязательна к прослушиванию!
P.S. Уважаемые модераторы, раздача заслуживает золота.
bed

Online
Стаж: 15 лет 4 мес.
Сообщений: 555
Ratio: 41.233
Поблагодарили: 852
100%
witch.png
Спасибо! Давно искал...
seregabor
Стаж: 10 лет 8 мес.
Сообщений: 74
Ratio: 13.296
100%
Откуда: и куда? Да всё туда...
Хех, а раздающих нет...
Показать сообщения:   
Начать новую тему   Ответить на тему    Торрент-трекер NNM-Club -> Pop -> Зарубежная поп-музыка (Lossless) Часовой пояс: GMT + 3
Страница 1 из 1