Классический форум-трекер
canvas not supported
Нас вместе: 4 233 720

Призрачный гонщик 2 / Ghost Rider: Spirit of Vengeance (2011) HDRip


 
 
RSS
Начать новую тему   Ответить на тему    Торрент-трекер NNM-Club -> Зарубежное кино -> Зарубежные Фильмы (SD)
Автор Сообщение
ZoNoW ®
Модератор Видео
Стаж: 13 лет
Сообщений: 8482
Ratio: 699K
Раздал: 84.23 TB
Поблагодарили: 4028297
100%
ussr.gif
Призрачный гонщик 2 / Ghost Rider: Spirit of Vengeance (2011) HDRip
Русское название: Призрачный гонщик 2
Оригинальное название: Ghost Rider: Spirit of Vengeance
Год выпуска: 2011
Производство: США, ОАЭ
Жанр: Фэнтези, Боевик, Триллер
Перевод: Дублированный [лицензия]
Субтитры: Отсутствуют

Дата мировой премьеры: 11 декабря 2011
Дата российской премьеры: 23 февраля 2012, «Централ Партнершип»
Дата выхода DVD релиза: 4 июня 2012, «Новый Диск»

Режиссер: Марк Невелдайн, Брайан Тейлор
Актеры: Николас Кейдж, Кристофер Ламберт, Кьяран Хайндс, Виоланте Плачидо, Джонни Витуорт, Идрис Эльба, Фергус Риордан, Спенсер Уидлинг, Сорин Тофан, Яцек Коман

Описание фильма:
Действие разворачивается на задворках Восточной Европы, где главный герой Джонни Блэйз безуспешно пытается справиться со своим проклятием. Его принимает на работу некая секта, которая пытается заполучить дьявола в тот момент, когда он пытается вселиться в тело его смертного сына на дне рождения мальчика.



Продолжительность: 01:35:31
Качество видео: HDRip

Видеокодек: Xvid
Битрейт видео: 889 kbps
Размер кадра: 640x272
Аудиокодек: MP3, 2 ch
Битрейт аудио: 128 kbps
Общее
Полное имя : D:\Раздачи\Prizrachnui.Gonshik.2.2012.D.HDRip.700MB.avi
Формат : AVI
Формат/Информация : Audio Video Interleave
Размер файла : 701 Мбайт
Продолжительность : 1 ч. 35 м.
Общий поток : 1026 Кбит/сек
Программа кодирования : VirtualDubMod 1.5.10.2 (build 2540/release)
Библиотека кодирования : VirtualDubMod build 2540/release

Видео
Идентификатор : 0
Формат : MPEG-4 Visual
Профиль формата : Advanced Simple@L5
Параметр BVOP формата : 2
Параметр QPel формата : Нет
Параметр GMC формата : Без точки перехода
Параметр матрицы формата : Выборочная
Идентификатор кодека : XVID
Идентификатор кодека/Подсказка : XviD
Продолжительность : 1 ч. 35 м.
Битрейт : 889 Кбит/сек
Ширина : 640 пикселей
Высота : 272 пикселя
Соотношение сторон : 2,35:1
Частота кадров : 23,976 кадра/сек
Цветовое пространство : YUV
Субдискретизация насыщенности : 4:2:0
Битовая глубина : 8 бит
Тип развёртки : Прогрессивная
Метод сжатия : С потерями
Бит/(Пиксели*Кадры) : 0.213
Размер потока : 608 Мбайт (87%)
Библиотека кодирования : XviD 1.2.1 (UTC 2008-12-04)

Аудио
Идентификатор : 1
Формат : MPEG Audio
Версия формата : Version 1
Профиль формата : Layer 3
Режим : Joint stereo
Идентификатор кодека : 55
Идентификатор кодека/Подсказка : MP3
Продолжительность : 1 ч. 35 м.
Вид битрейта : Постоянный
Битрейт : 128 Кбит/сек
Каналы : 2 канала
Частота : 48,0 КГц
Метод сжатия : С потерями
Размер потока : 87,5 Мбайт (12%)
Выравнивание : Соединение по промежуткам
Продолжительность промежутка : 42 мс. (1,00 видеокадр)
Время предзагрузки промежутка : 504 мс.
Скриншоты:





Время раздачи: с 10.00 по 01.00 до 6 скачавших
[NNM-Club.ru]_Prizrachnui.Gonshik.2.2012.D.HDRip.700MB.avi.torrent
 Торрент: Платиновая раздача  Зарегистрирован
 
Скачать


Примагнититься
 Зарегистрирован:   28 Май 2012 19:18:27
 Размер:   701 MB  (
 Рейтинг:   4.2 (Голосов: 53)
 Поблагодарили:   158
 Проверка:   Оформление проверено модератором 28 Май 2012 20:23:37
Как cкачать  ·  Как раздать  ·  Правильно оформить  ·  Поднять ратио!  
splinter12
Стаж: 14 лет 4 мес.
Сообщений: 212
Ratio: 24.623
Поблагодарили: 1090
100%
Откуда: г.Самара
russia.gif
Рип не качественный - картинка дёргается.
Kilokil
 
Стаж: 16 лет 8 мес.
Сообщений: 128
Ratio: 22.475
Поблагодарили: 103
15.48%
Откуда: Покачи
russia.gif
splinter12 писал(а): Перейти к сообщению
Рип не качественный - картинка дёргается.


Вот теперь я в сомнении, качать для коллекции или нет

_________________

BlackHawk78
Стаж: 12 лет 5 мес.
Сообщений: 11
Ratio: 1.421
100%
ussr.gif
Стоял на раздаче долго...потом решил глянуть, поддерживаю сплинтера12 - качество картинки ужасное. Не качать!
AlexandrVT
Стаж: 14 лет 4 мес.
Сообщений: 109
Ratio: 10
100%
Откуда: С ЮГА... западной сибири
ussr.gif
Раздающему - жирный минус
Куда смотрел модератор?
Показать сообщения:   
Начать новую тему   Ответить на тему    Торрент-трекер NNM-Club -> Зарубежное кино -> Зарубежные Фильмы (SD) Часовой пояс: GMT + 3
Страница 1 из 1