Классический форум-трекер
canvas not supported
Нас вместе: 4 233 579

Призрачный гонщик 2 / Ghost Rider: Spirit of Vengeance (2011) DVD5 [BD -> DVD]


 
 
RSS
Начать новую тему   Ответить на тему    Торрент-трекер NNM-Club -> Зарубежное кино -> Зарубежные Фильмы (DVD)
Автор Сообщение
Krucha ®
Стаж: 15 лет 1 мес.
Сообщений: 3644
Ratio: 159.977
Раздал: 19.14 TB
Поблагодарили: 256712
100%
Откуда: Запорожье
ussr.gif
Призрачный гонщик 2 / Ghost Rider: Spirit of Vengeance (2011) DVD5
Русское название: Призрачный гонщик 2
Оригинальное название: Ghost Rider: Spirit of Vengeance
Год выпуска: 2011
Производство: США
Студия: Columbia Pictures, Hyde Park Entertainment, Imagenation Abu Dhabi FZ, Marvel Knights
Бюджет: $57 000 000
Жанр: Фэнтези, Боевик, Триллер
Перевод: Дублированный
Вид субтитров: Вшитые отключаемые
Язык субтитров: Русский, Английский

Дата мировой премьеры: 11 декабря 2011
Дата российской премьеры: 23 февраля 2012 «Централ Партнершип»
Дата выхода DVD и Blu-Ray релиза: 4 июня 2012 «Новый Диск»

Режиссер: Марк Невелдайн, Брайан Тейлор
Продюсер: Ашок Амритрадж, Стивен Пол, Ари Арад
Актеры: Николас Кейдж, Кристофер Ламберт, Кьяран Хайндс, Виоланте Плачидо, Джонни Витуорт, Идрис Эльба, Фергус Риордан, Спенсер Уидлинг, Сорин Тофан, Яцек Коман

Описание фильма:
Действие разворачивается на задворках Восточной Европы, где главный герой Джонни Блэйз безуспешно пытается справиться со своим проклятием. Его принимает на работу некая секта, которая пытается заполучить дьявола в тот момент, когда он пытается вселиться в тело его смертного сына на дне рождения мальчика.



Продолжительность: 01:31:37
Качество видео: DVD5

Видеокодек: MPEG-2
Битрейт видео: ~5706 kb/s
Размер кадра: PAL 16:9 (720x576)
Аудиокодек и битрейт аудио:
Аудио #1: Русский ( AC3, 6 ch, 448 kb/s)
Аудио #2: Английский ( AC3, 6 ch, 448 kb/s )
Дополнительно: нет


Релиз от:
Общее
Полное имя : D:\Призрачный гонщик 2\Призрачный гонщик 2 (2011) DVD5 [NewMover]\VIDEO_TS\VTS_02_1.VOB
Формат : MPEG-PS
Размер файла : 1000 Мбайт
Продолжительность : 20 м.
Режим общего битрейта : Переменный
Общий поток : 6737 Кбит/сек

Видео
Идентификатор : 224 (0xE0)
Формат : MPEG Video
Версия формата : Version 2
Профиль формата : Main@Main
Параметр BVOP формата : Да
Параметр матрицы формата : Выборочная
Продолжительность : 20 м.
Вид битрейта : Переменный
Битрейт : 5706 Кбит/сек
Максимальный битрейт : 8900 Кбит/сек
Ширина : 720 пикселей
Высота : 576 пикселей
Соотношение сторон : 16:9
Частота кадров : 25,000 кадров/сек
Стандарт вещания : PAL
Цветовое пространство : YUV
Субдискретизация насыщенности : 4:2:0
Битовая глубина : 8 бит
Тип развёртки : Прогрессивная
Метод сжатия : С потерями
Бит/(Пиксели*Кадры) : 0.550
Размер потока : 847 Мбайт (85%)

Аудио #1
Идентификатор : 189 (0xBD)-128 (0x80)
Формат : AC-3
Формат/Информация : Audio Coding 3
Расширение режима : CM (complete main)
Режим смешивания : DVD-Video
Продолжительность : 20 м.
Вид битрейта : Постоянный
Битрейт : 448 Кбит/сек
Каналы : 6 каналов
Расположение каналов : Front: L C R, Side: L R, LFE
Частота : 48,0 КГц
Битовая глубина : 16 бит
Метод сжатия : С потерями
Размер потока : 66,5 Мбайт (7%)

Аудио #2
Идентификатор : 189 (0xBD)-129 (0x81)
Формат : AC-3
Формат/Информация : Audio Coding 3
Расширение режима : CM (complete main)
Режим смешивания : DVD-Video
Продолжительность : 20 м.
Вид битрейта : Постоянный
Битрейт : 448 Кбит/сек
Каналы : 6 каналов
Расположение каналов : Front: L C R, Side: L R, LFE
Частота : 48,0 КГц
Битовая глубина : 16 бит
Метод сжатия : С потерями
Размер потока : 66,5 Мбайт (7%)

Текст #1
Идентификатор : 189 (0xBD)-32 (0x20)
Формат : RLE
Формат/Информация : Run-length encoding
Режим смешивания : DVD-Video

Текст #2
Идентификатор : 189 (0xBD)-33 (0x21)
Формат : RLE
Формат/Информация : Run-length encoding
Режим смешивания : DVD-Video

Текст #3
Идентификатор : 189 (0xBD)-34 (0x22)
Формат : RLE
Формат/Информация : Run-length encoding
Режим смешивания : DVD-Video

Текст #4
Идентификатор : 189 (0xBD)-35 (0x23)
Формат : RLE
Формат/Информация : Run-length encoding
Режим смешивания : DVD-Video

Меню
Title: Призрачный гонщик 2 (2011) DVD5 [NewMover]
Size: 4.37 Gb ( 4 583 432,00 KBytes ) - DVD-5
Enabled regions: 1, 2, 3, 4, 5, 6, 7, 8

VTS_01 :
Play Length: 00:00:15
Video: PAL 16:9 (720x576) VBR, Auto Letterboxed
Audio:
Not specified (Dolby AC3, 2 ch)

VTS_02 :
Play Length: 01:31:37
Video: PAL 16:9 (720x576) VBR, Auto Letterboxed
Audio:
Russian (Dolby AC3, 6 ch)
English (Dolby AC3, 6 ch)
Subtitles:
Russian
English
Это не лицензия, претензии не принимаются!
Исходник Blu-Ray (HDChina), скачан из сети.
Русская дорожка скачана из сети.
Русские субтитры скачаны из сети.
Меню частично анимированное, полностью озвученное, без динамических переходов.
Обработка производилась:
PhotoShop - работа над меню,
tsMuxer - демуксинг m2ts,
AVISynth, Carbon Coder - работа с видео,
BeHappy, Sony Vegas, - работа со звуком,
SupRip, Subtitle Workshop - работа над субтитрами,
Sony Vegas - синхронизация аудио и видео,
DVD Architect - создание DVD.
Работоспособность проверена на софтовом плеере Windows Media, PowerDVD и бытовом BBK.
Записано программой ImgBurn на DVD-RW болванку.
Скриншоты:

Время раздачи: С 22:00 до 9:00 (время Московское) до 5 скачавших
Скачали фильм, напишите комментарий!
[NNM-Club.ru]_Prizrachnyiy gonshchik 2 (2011) DVD5 [NewMover].torrent
 Торрент: Платиновая раздача  Зарегистрирован
 
Скачать


 Зарегистрирован:   31 Май 2012 09:19:43
 Размер:   4.37 GB  (
 Рейтинг:   4.3 (Голосов: 86)
 Поблагодарили:   294
 Проверка:   Оформление проверено модератором 31 Май 2012 21:39:08
Как cкачать  ·  Как раздать  ·  Правильно оформить  ·  Поднять ратио!  
Demasik
Стаж: 13 лет 8 мес.
Сообщений: 534
Ratio: 73.217
Поблагодарили: 34669
100%
ussr.gif
Krucha Спасибо за релиз!!! :ура:
MoonNBeeM
Uploader 100+
Стаж: 14 лет 4 мес.
Сообщений: 78
Ratio: 64.377
Раздал: 203.3 TB
Поблагодарили: 279
100%
Откуда: КРЫМ
russia.gif
Фильм нормальный ...на один раз пгойдёт
JIogaPb
Стаж: 13 лет 8 мес.
Сообщений: 33
Ratio: 21.1
100%
russia.gif
мда... фильм полная лажа, 1 часть была намного лучше, жалко потраченного времени.

_________________
Если ты всегда будешь делать только то, что ты делал всегда, ты будешь иметь только то, что ты имеешь теперь.
velkos
Стаж: 15 лет 2 мес.
Сообщений: 285
Ratio: 1.163
100%
Спс... :респект:
suvorik05
Стаж: 12 лет 4 мес.
Сообщений: 1
Ratio: 9.97
0.97%
russia.gif
огромный респект...качество супер :ура:
Diavol228
Стаж: 11 лет 4 мес.
Сообщений: 32
Ratio: 7.454
1.91%
russia.gif
Смотрю по отзывам вроде норм скачаю посмотрю
Показать сообщения:   
Начать новую тему   Ответить на тему    Торрент-трекер NNM-Club -> Зарубежное кино -> Зарубежные Фильмы (DVD) Часовой пояс: GMT + 3
Страница 1 из 1