Классический форум-трекер
canvas not supported
Нас вместе: 4 233 587

Призрачный гонщик 2 / Ghost Rider: Spirit of Vengeance (2011) [H.264] BDRip


 
 
RSS
Начать новую тему   Ответить на тему    Торрент-трекер NNM-Club -> Зарубежное кино -> Зарубежные Фильмы (SD)
Автор Сообщение
_MysTeRy_ ®
Блондинка в шоколаде
Стаж: 13 лет 3 мес.
Сообщений: 1728
Ratio: 156.769
Раздал: 34.16 TB
Поблагодарили: 226190
100%
logo.gif
Призрачный гонщик 2 / Ghost Rider: Spirit of Vengeance (2011) BDRip
Русское название: Призрачный гонщик 2
Оригинальное название: Ghost Rider: Spirit of Vengeance
Год выпуска: 2011
Производство: США, ОАЭ / Columbia Pictures, Crystal Sky Pictures, Hyde Park Entertainment
Жанр: Фэнтези, Боевик, Триллер
Перевод: Дублированный [лицензия]
Субтитры: Отсутствуют

Дата мировой премьеры: 11 декабря 2011
Дата российской премьеры: 23 февраля 2012, «Централ Партнершип»
Дата выхода DVD релиза: 4 июня 2012, «Новый Диск»
Дата выхода Blu-Ray релиза: 4 июня 2012, «Новый Диск»

Режиссер: Марк Невелдайн, Брайан Тейлор
Актеры: Николас Кейдж, Кристофер Ламберт, Кьяран Хайндс, Виоланте Плачидо, Джонни Витуорт, Идрис Эльба, Фергус Риордан, Спенсер Уидлинг, Сорин Тофан, Яцек Коман

Описание фильма:
Действие разворачивается на задворках Восточной Европы, где главный герой Джонни Блэйз безуспешно пытается справиться со своим проклятием. Его принимает на работу некая секта, которая пытается заполучить дьявола в тот момент, когда он пытается вселиться в тело его смертного сына на дне рождения мальчика.




Продолжительность: 01:35:31
Качество видео: BDRip

Видеокодек: MPEG-4 AVC/H.264
Битрейт видео: ~1799 Кбит/сек
Размер кадра: 1056x440
Аудиокодек: AC3 5.1
Битрейт аудио: 384 Кбит/сек
Код:
Общее
Уникальный идентификатор         : 181170119117205533240607333349396021777 (0x884C1882A71B0FFC8C1CFCD3CCDF8211)
Полное имя                       : D:\uTorrent\Prizrachnyj.Gonwik.2.2011.BDRip-AVC_NNM-CLUB.RU.mkv
Формат                           : Matroska
Версия формата                   : Version 2
Размер файла                     : 1,45 Гбайт
Продолжительность                : 1 ч. 35 м.
Общий поток                      : 2171 Кбит/сек
Название фильма                  : Ghost Rider: Spirit of Vengeance
Дата кодирования                 : UTC 2012-06-03 12:14:21
Программа кодирования            : mkvmerge v5.5.0 ('Healer') built on Apr  6 2012 21:43:24
Библиотека кодирования           : libebml v1.2.3 + libmatroska v1.3.0

Видео
Идентификатор                    : 1
Формат                           : AVC
Формат/Информация                : Advanced Video Codec
Профиль формата                  : High@L4.1
Параметр CABAC формата           : Да
Параметр ReFrames формата        : 11 кадров
Режим смешивания                 : Header stripping
Идентификатор кодека             : V_MPEG4/ISO/AVC
Продолжительность                : 1 ч. 35 м.
Битрейт                          : 1799 Кбит/сек
Ширина                           : 1056 пикселей
Высота                           : 440 пикселей
Соотношение сторон               : 2,40:1
Частота кадров                   : 23,976 кадра/сек
Цветовое пространство            : YUV
Субдискретизация насыщенности    : 4:2:0
Битовая глубина                  : 8 бит
Тип развёртки                    : Прогрессивная
Бит/(Пиксели*Кадры)              : 0.161
Размер потока                    : 1,16 Гбайт (80%)
Заголовок                        : Призрачный гонщик 2 / Ghost Rider: Spirit of Vengeance (2011) [H.264] BDRip
Библиотека кодирования           : x264 core 120 r2164 da19765
Настройки программы              : cabac=1 / ref=11 / deblock=1:-2:-1 / analyse=0x3:0x113 / me=umh / subme=10 / psy=1 / psy_rd=0.95:0.05 / mixed_ref=1 / me_range=32 / chroma_me=1 / trellis=2 / 8x8dct=1 / cqm=0 / deadzone=21,11 / fast_pskip=0 / chroma_qp_offset=-3 / threads=6 / sliced_threads=0 / nr=0 / decimate=1 / interlaced=0 / bluray_compat=0 / constrained_intra=0 / bframes=8 / b_pyramid=2 / b_adapt=1 / b_bias=0 / direct=1 / weightb=1 / open_gop=0 / weightp=2 / keyint=240 / keyint_min=22 / scenecut=40 / intra_refresh=0 / rc=2pass / mbtree=0 / bitrate=1799 / ratetol=1.0 / qcomp=0.70 / qpmin=10 / qpmax=61 / qpstep=4 / cplxblur=20.0 / qblur=0.5 / ip_ratio=1.40 / pb_ratio=1.30 / aq=2:0.70
Язык                             : English
Default                          : Нет
Forced                           : Нет

Аудио
Идентификатор                    : 2
Формат                           : AC-3
Формат/Информация                : Audio Coding 3
Расширение режима                : CM (complete main)
Режим смешивания                 : Header stripping
Идентификатор кодека             : A_AC3
Продолжительность                : 1 ч. 35 м.
Вид битрейта                     : Постоянный
Битрейт                          : 384 Кбит/сек
Каналы                           : 6 каналов
Расположение каналов             : Front: L C R, Side: L R, LFE
Частота                          : 48,0 КГц
Битовая глубина                  : 16 бит
Метод сжатия                     : С потерями
Размер потока                    : 262 Мбайт (18%)
Заголовок                        : Dub / Rus / AC3 5.1
Язык                             : Russian
Default                          : Да
Forced                           : Нет
Скриншоты:



Время раздачи: 16.30-23.00 до 5 скачавших
Prizrachnyj.Gonwik.2.2011.BDRip-AVC_NNM-CLUB.RU.mkv.torrent
 Торрент: Платиновая раздача  Зарегистрирован
 
Скачать


Примагнититься
 Зарегистрирован:   03 Июн 2012 15:27:11
 Размер:   1.45 GB  (
 Рейтинг:   4.5 (Голосов: 147)
 Поблагодарили:   586
 Проверка:   Оформление проверено модератором 03 Июн 2012 17:37:40
Как cкачать  ·  Как раздать  ·  Правильно оформить  ·  Поднять ратио!  
Ariveder4i
Стаж: 14 лет 7 мес.
Сообщений: 371
Ratio: 2.38
19.35%
Откуда: Lisboa
portugal.gif
Разочаровал фильм(
ka4ek92
Стаж: 13 лет 7 мес.
Сообщений: 894
Ratio: 2.984
100%
ага
мне и первая то часть не очень понравилась глупой концовкой а тут весь фильм скушный и бредовый
TasmaNFeraL
 
Стаж: 15 лет 1 мес.
Сообщений: 755
Ratio: 8.955
Раздал: 86.28 TB
Поблагодарили: 516
23.4%
russia.gif
Евы Мендес нет - весь интерес к фильму пропал :шок: :плач:

_________________
Intel 11900KF BOX @5.3GHz| ASUS Maximus Hero XIII|
G.Skill TRIDENT Z RGB [3600/64GB]|MSI RTX4090 SUPRIM X|
Arctic Liquid Freezer II 420 RGB| RM850| FD Define 7XL|
Samsung: 970 Evo+ 2TB| SSD 870 Evo 2TB| WD Red Plus 18 TB|
Keenetic GIGA| DL: 500 mbit/s/ UL: 500 mbit/s
Игорь_Турист
Стаж: 13 лет 4 мес.
Сообщений: 387
Ratio: 1804.273
100%
Откуда: Ровно
ukraine.gif
Мля, "шедевр" из КИНОВЫСЕРОВ! Асилум тихонько курит в сторонке...
Z.A.P
Стаж: 14 лет 5 мес.
Сообщений: 59
Ratio: 29.255
12.51%
Откуда: Свердловка
russia.gif
Разок можно глянуть,и тот с трудом
F1RE
Стаж: 16 лет 10 мес.
Сообщений: 168
Ratio: 0.961
Поблагодарили: 25
1.8%
Откуда: Москва
russia.gif
НИЗКОБЮДЖЕТНЫЙ!! кейдж скатился. странно, первая часть вроде была более-менее
Dob3rMan
Стаж: 12 лет 6 мес.
Сообщений: 154
Ratio: 6.996
Раздал: 23.97 TB
Поблагодарили: 41
100%
_MysTeRy_
Спасибо!!! Первая часть была не очень, может эта поинтереснее.
Показать сообщения:   
Начать новую тему   Ответить на тему    Торрент-трекер NNM-Club -> Зарубежное кино -> Зарубежные Фильмы (SD) Часовой пояс: GMT + 3
Страница 1 из 1