Классический форум-трекер
canvas not supported
Нас вместе: 4 233 602

Призрачный гонщик 2 / Ghost Rider: Spirit of Vengeance (2011) [1080p] BDRip


 
 
RSS
Начать новую тему   Ответить на тему    Торрент-трекер NNM-Club -> Зарубежное кино -> Зарубежные Фильмы (HD, FHD)
Автор Сообщение
HAwkey ®
Стаж: 13 лет 1 мес.
Сообщений: 43
Ratio: 31.815
Поблагодарили: 1633
100%
ukraine.gif
Призрачный гонщик 2 / Ghost Rider: Spirit of Vengeance (2011) [1080p] BDRip
Русское название: Призрачный гонщик 2
Оригинальное название: Ghost Rider: Spirit of Vengeance
Год выпуска: 2011
Производство: США, ОАЭ / Columbia Pictures, Crystal Sky Pictures, Hyde Park Entertainment
Жанр: Фэнтези, Боевик, Триллер

Описание фильма:
Нравится вам это или нет, но Джонни Блэйз (Николас Кейдж) возвращается в совершенно иной интерпретации темной истории Призрачный гонщик 2 и сразу в двух ипостасях – как главный герой и его потусторонний образ. Действие картины происходит спустя несколько лет после событий, рассказанных в первой части фильма. Бывший каскадер и охотник за головами Джонни Блэйз скрылся от людей в Восточной Европе, пытаясь справиться со своим демоническим даром, а по сути - проклятием. Но однажды к нему обращается лидер группы повстанческих монахов Моро (Идрис Эльба) из ордена Святого Михаила, с просьбой защитить их членов, мать и ребенка, в которого должен вселиться Дьявол в день его рождения. Хочешь – не хочешь, но Джонни вынужден рискнуть и приложить все силы, чтобы воспрепятствовать замыслу Дьявола, ведь это может стать его шансом на избавление от своего проклятия навсегда.

Режиссер: Марк Невелдайн, Брайан Тейлор
Актеры: Николас Кейдж, Кирен Хайдз, Виоланте Плачидо, Джонни Витуорт, Кристофер Ламберт, Идрис Эльба, Фергус Риордан, Спенсер Уидлинг, Сорин Тофан, Яцек Коман

Продолжительность: 01:35:31
Перевод: Дублированный
Язык: Русский
Субтитры: Отсутствуют



Дата мировой премьеры: 11 декабря 2011
Дата российской премьеры: 23 февраля 2012
Дата выхода DVD релиза: 4 июня 2012

Видеокодек: MPEG-4 AVC/H.264
Битрейт видео: ~8310 kb/s
Размер кадра: 1920x800
Качество видео: BDRip
Аудиокодек: AC3
Битрейт аудио: 448 kb/s
Видео
Идентификатор : 1
Формат : AVC
Формат/Информация : Advanced Video Codec
Профиль формата : High@L4.1
Параметр CABAC формата : Да
Параметр ReFrames формата : 5 кадров
Параметры GOP формата : M=2, N=27
Идентификатор кодека : V_MPEG4/ISO/AVC
Продолжительность : 1 ч. 35 м.
Битрейт : 8310 Кбит/сек
Ширина : 1920 пикс.
Высота : 800 пикс.
Соотношение сторон : 2,40:1
Частота кадров : 23,976 кадр/сек
Цветовое пространство : YUV
Подвыборка цветности : 4:2:0
Битовая глубина : 8 бит
Тип развёртки : Прогрессивная
Бит/(Пиксели*Кадры) : 0.226
Размер потока : 5,43 Гбайт (93%)
Библиотека кодирования : x264 core 125 r2200 999b753
Настройки программы : cabac=1 / ref=5 / deblock=1:0:0 / analyse=0x3:0x133 / me=umh / subme=7 / psy=1 / psy_rd=1.00:0.00 / mixed_ref=1 / me_range=16 / chroma_me=1 / trellis=1 / 8x8dct=1 / cqm=0 / deadzone=21,11 / fast_pskip=0 / chroma_qp_offset=-2 / threads=12 / lookahead_threads=2 / sliced_threads=0 / nr=0 / decimate=1 / interlaced=0 / bluray_compat=0 / constrained_intra=0 / bframes=3 / b_pyramid=2 / b_adapt=1 / b_bias=0 / direct=1 / weightb=1 / open_gop=0 / weightp=2 / keyint=250 / keyint_min=23 / scenecut=40 / intra_refresh=0 / rc_lookahead=40 / rc=2pass / mbtree=1 / bitrate=8310 / ratetol=1.0 / qcomp=0.60 / qpmin=0 / qpmax=69 / qpstep=4 / cplxblur=20.0 / qblur=0.5 / ip_ratio=1.40 / aq=1:1.00
Язык : English

Аудио
Идентификатор : 2
Формат : AC-3
Формат/Информация : Audio Coding 3
Расширение режима : CM (complete main)
Идентификатор кодека : A_AC3
Продолжительность : 1 ч. 35 м.
Вид битрейта : Постоянный
Битрейт : 448 Кбит/сек
Каналы : 6 каналов
Расположение каналов : Front: L C R, Side: L R, LFE
Частота : 48,0 КГц
Битовая глубина : 16 бит
Метод сжатия : С потерями
Размер потока : 306 Мбайт (5%)
Язык : Russian
Скриншоты:
Режиссер Брайан Тейлор («Адреналин», «Геймер») снял роскошный фильм, который выходит за грани дозволенного, а моментами просто безумен, с зубодробительными погонями, мотоциклетными трюками и сумасшедшими спецэффектами. Как пояснил Тейлор: «события первой картины остались где-то далеко позади. Мы не отказались полностью от первого фильма, но Призрачный Гонщик 2 целиком оригинален, это не сиквел и не продолжение, а совершенно самостоятельная новая история, да и герой совсем не тот, которого зритель видел раньше». Николас Кейдж на вопрос о разнице между двумя фильмами ответил: «первая часть была скорее сказка братьев Гримм для детей, а этот будет выглядеть как настоящий кошмар для взрослых».
Время раздачи: c 19.00 до 24.00
[NNM-Club.ru]_Gh Rid Sp of Veng.mkv.torrent
 Торрент: Платиновая раздача  Зарегистрирован
 
Скачать


 Зарегистрирован:   05 Июн 2012 00:07:13
 Размер:   5.84 GB  (
 Рейтинг:   4.2 (Голосов: 84)
 Поблагодарили:   256
 Проверка:   Оформление проверено модератором 05 Июн 2012 22:16:33
Как cкачать  ·  Как раздать  ·  Правильно оформить  ·  Поднять ратио!  
FireDiablo
Стаж: 13 лет 3 мес.
Сообщений: 16
Ratio: 4.231
Раздал: 4.143 TB
2.93%
russia.gif
Тот ещё шлак :нет:
Sinoptik
Стаж: 14 лет
Сообщений: 52
Ratio: 7.606
100%
russia.gif
понравился тот чувак, который все в гниль превращал!
MaiorPain69
Стаж: 12 лет 6 мес.
Сообщений: 18
Ratio: 10.753
Раздал: 1.983 TB
34.38%
Ужасный фильм, во первых сильное отклонение от сюжетной линии:
1) Огонь не тухнет днём.
2) Борится с каким-то бомжедемоном а не дьяволом.
3) Какие-то бессмысленные превращения автотраспорта.

Это всё лишнее, где тот гонщик, который удирал от копов, показывая им .!. ?
Где всё? Кошмар какой-то.

Эффекты:
Сплошные ненужные эффекты:
1) Искусственная тряска камеры.
2) Какой-то непонятный чёрный дым.
3) Пафосные превращения, а что толку то?

Я ставлю минимальную оценку, фильм ужасный.
Darkstalker
Стаж: 14 лет 3 мес.
Сообщений: 46
Ratio: 3.925
0.81%
Достойное продолжение первой части) Если кто-то ничего не понял пересмотрите ещё раз сопоставьте все что говорится и у вас сложится полная картин фильма и она крутая, она объясняет и что он был демоном днём и многое))) Там всё показано и рассказано, читайте между строк сопоставляйте факты) я думал что реально хрень, а фильм охрененный)
MCLirik
Стаж: 14 лет
Сообщений: 49
Ratio: 5.336
100%
ussr.gif
Посмотрим.

Добавлено спустя 5 часов 24 минуты 25 секунд:

Посмотрел...
Лучше бы не смотрел, одни расстройства.
Pioner2007
Стаж: 14 лет 3 мес.
Сообщений: 68
Ratio: 10.058
100%
Откуда: Нижний Новгород
russia.gif
Уснул,не просмотрев и половины фильма:(
Показать сообщения:   
Начать новую тему   Ответить на тему    Торрент-трекер NNM-Club -> Зарубежное кино -> Зарубежные Фильмы (HD, FHD) Часовой пояс: GMT + 3
Страница 1 из 1