Классический форум-трекер
canvas not supported
Нас вместе: 4 114 836

Код доступа «Кейптаун» / Safe House (2012) HDRip


 
 
RSS
Начать новую тему   Ответить на тему    Торрент-трекер NNM-Club -> Зарубежное кино -> Зарубежные Фильмы (HD*Rip/LQ, DVDRip, SATRip, VHSRip)
Автор Сообщение
ZoNoW ®
Модератор Видео
Стаж: 9 лет
Сообщений: 7430
Ratio: 681K
Раздал: 82,13 TB
Поблагодарили: 3444933
100%
ussr.gif
Код доступа «Кейптаун» / Safe House (2012) HDRip
Русское название: Код доступа «Кейптаун»
Оригинальное название: Safe House
Год выпуска: 2012
Производство: Intrepid Pictures / Moonlighting Films South Africa / Relativity Media / Stuber Productions [США, ЮАР]
Жанр: Боевик, триллер, криминал, детектив
Перевод: Дублированный [лицензия]
Субтитры: Отсутствуют

Дата мировой премьеры: 7 февраля 2012
Дата российской премьеры: 9 февраля 2012, «UPI»
Дата выхода DVD релиза: 14 июня 2012, «Двадцатый Век Фокс СНГ»

Режиссер: Дэниэл Эспиноза
Продюсер: Скотт Стубер, Скотт Аверсано, Марк Д. Эванс
Актеры: Дензел Вашингтон, Райан Рейнольдс, Вера Фармига, Брендан Глисон, Сэм Шепард, Рубен Бладес, Нора Арнезедер, Роберт Патрик, Лиам Каннингэм, Юэль Киннаман

Описание фильма:
Выпускник Гарварда Мэтт мечтает со своей невестой переехать в Париж. Но она не знает, что уже год он работает на ЦРУ. Легендарный агент ЦРУ Фрост владеет секретной информацией. Но он вышел из-под контроля, и теперь его главное правило: «не доверяй никому — тебя предаст каждый». Их пути пересекутся в одном из красивейших городов мира — Кейптауне, где каждый должен будет сделать свой выбор.



Продолжительность: 01:54:54
Качество видео: HDRip

Видеокодек: Xvid
Битрейт видео: 1308 kbps
Размер кадра: 720x304
Аудиокодек: AC3 5.1
Битрейт аудио: 384 kbps
General
Complete name : J:\Last Files\Kod.Dostupa.Keyptaun.2012.XviD.HDRip.avi
Format : AVI
Format/Info : Audio Video Interleave
File size : 1.37 GiB
Duration : 1h 54mn
Overall bit rate : 1 701 Kbps
Writing application : VirtualDubMod 1.5.10.2 (build 2540/release)
Writing library : VirtualDubMod build 2540/release

Video
ID : 0
Format : MPEG-4 Visual
Format profile : Advanced Simple@L5
Format settings, BVOP : 3
Format settings, QPel : No
Format settings, GMC : No warppoints
Format settings, Matrix : Default (MPEG)
Codec ID : XVID
Codec ID/Hint : XviD
Duration : 1h 54mn
Bit rate : 1 308 Kbps
Width : 720 pixels
Height : 304 pixels
Display aspect ratio : 2.35:1
Frame rate : 23.976 fps
Color space : YUV
Chroma subsampling : 4:2:0
Bit depth : 8 bits
Scan type : Progressive
Compression mode : Lossy
Bits/(Pixel*Frame) : 0.249
Stream size : 1.05 GiB (77%)
Writing library : XviD 1.2.1 (UTC 2008-12-04)

Audio
ID : 1
Format : AC-3
Format/Info : Audio Coding 3
Mode extension : CM (complete main)
Codec ID : 2000
Duration : 1h 54mn
Bit rate mode : Constant
Bit rate : 384 Kbps
Channel(s) : 6 channels
Channel positions : Front: L C R, Side: L R, LFE
Sampling rate : 48.0 KHz
Bit depth : 16 bits
Compression mode : Lossy
Delay relative to video : 20ms
Stream size : 315 MiB (23%)
Alignment : Split accross interleaves
Interleave, duration : 42 ms (1.00 video frame)
Interleave, preload duration : 500 ms
Скриншоты:




Время раздачи: с 10.00 по 01.00 до 6 скачавших
[NNM-Club.ru]_Keyptaun.2012.XviD.HDRip.1400MB.avi.torrent
 Торрент: Платиновая раздача  Зарегистрирован
 
Скачать


Примагнититься
 Зарегистрирован:   06 Июн 2012 17:53:09
 Размер:   1,37 GB  (
 Рейтинг:   4,7 (Голосов: 49)
 Поблагодарили:   274
 Проверка:   Оформление проверено модератором 06 Июн 2012 20:43:34
Как cкачать  ·  Как раздать  ·  Правильно оформить  ·  Поднять ратио!  
aleks-nt
Стаж: 10 лет 6 мес.
Сообщений: 530
Ratio: 23,561
100%
Откуда: С УРАЛЬСКИХ ГОР
russia.gif
Спасибо . Посмотрим . :D
dimitrii36
Стаж: 8 лет 3 мес.
Сообщений: 260
Ratio: 43,285
100%
Откуда: от верблюда
witch.png
Посмотрел,не зацепило,одноразовый фильм.

_________________
Благодарю за труды. Когда мы едины,мы непобедимы!
Dumb_M1
Стаж: 12 лет 7 мес.
Сообщений: 171
Ratio: 12,725
Поблагодарили: 1839
100%
Хороший фильм, но, действительно, одноразовый. В конце, как это часто бывает, муть.
Показать сообщения:   
Начать новую тему   Ответить на тему    Торрент-трекер NNM-Club -> Зарубежное кино -> Зарубежные Фильмы (HD*Rip/LQ, DVDRip, SATRip, VHSRip) Часовой пояс: GMT + 3
Страница 1 из 1