Классический форум-трекер
canvas not supported
Нас вместе: 4 233 718

Донни Браско / Donnie Brasco (Расширенная версия / Extended Cut) (1997) BDRip


 
 
RSS
Начать новую тему   Ответить на тему    Торрент-трекер NNM-Club -> Зарубежное кино -> Зарубежные Фильмы (SD)
Автор Сообщение
anton966 ®
Стаж: 14 лет 7 мес.
Сообщений: 1237
Ratio: 1250.43
Поблагодарили: 62666
100%
Откуда: Saint-Pet​ersburg​
russia.gif
Донни Браско / Donnie Brasco (Расширенная версия / Extended Cut) (1997) BDRip
Русское название: Донни Браско
Оригинальное название: Donnie Brasco (Расширенная версия / Extended Cut)
Год выпуска: 1997
Производство: США, TriStar Pictures
Жанр: Драма, Триллер, Криминал

Описание фильма:
Нью - Йорк, 1978 год. Агент ФБР Джо Пистоне получает новое задание: внедриться в одну из преступных группировок Бруклина с целью получения полноценной информации о деятельности гангстерских банд. Он должен забыть свое настоящее имя, порвать со всеми друзьями и родными, так как теперь он - Донни Браско.
Его лучшим другом становится стареющий мафиози, нуждающийся в молодом напарнике. Он верит в Донни и поручает ему самые ответственные дела. Чувствуя свою безнаказанность, Донни понимает: как ни затянула его новая жизнь, дающая практически неограниченную свободу, вернуться обратно еще не поздно.
Нужно лишь сделать решающий шаг и предать того, кто стал для него настоящим другом…


Режиссер: Майк Ньюэлл / Mike Newell
Актеры: Аль Пачино (Benjamin 'Lefty' Ruggiero), Джонни Депп (Donnie Brasco, Joseph D. 'Joe' Pistone,), Майкл Мэдсен (Sonny Black), Бруно Кёрби (Nicky), Джеймс Руссо (Paulie), Энн Хеч (Maggie Pistone), Желько Иванек (Tim Curley), Джерри Бекер (Dean Blandford), Роберт Миано (Sonny Red), Брайан Тарантина (Bruno), Рокко Систо (Richard 'Richie' Gazzo), Зэк Гренье (Dr. Berger)

Продолжительность: 02:27:07
Перевод: Авторский (одноголосый, закадровый) Гаврилов, Немахов
Оригинальный аудиопоток: английский
Субтитры: отсутствуют

За перевод у Андрея Гаврилова в рамках спасибо нам: : Джосс, dunhill200, lexal2002, Chistobaev, therox, Dimec89, эвоки, audiolubitel, Dr. Destructo, Pain_70, ElenaS76, jorn.vv, creath, walera329, Kampfer161, xcoma, pestel, Vimann, Anatoliy555, LEMKE, feldeger, Letyoha3, SavineX, Perusta, Wolf_Larsen, Роналдо1976, Инкогнито!!!, anton966, gemini, LAVR,Linnan, Consul, nikson50
Оказали финансовую помощь проекту: Volfgang77, ZeDOK, elenkusto, shitman82
За работу с "голосом" Гаврилова спасибо Kampfer161



СЭМПЛ

Источник/Качество: BDRip / BDRemux 1080p
Формат: AVI
Видео: 720x304 (2.37:1), 23.976 fps, XviD build 65 ~1589 kbps avg, 0.30 bit/pixel
Аудио#1: 48 kHz, AC3 Dolby Digital, 2/0 (L,R) ch, ~192 kbps - Гаврилов (Dolby AC3 48000Hz 5.1 ch 640kbps)
Аудио#2: 48 kHz, AC3 Dolby Digital, 2/0 (L,R) ch, ~192 kbps - Немахов (Dolby AC3 48000Hz 5.1 ch 384kbps)
Аудио#3: 48 kHz, AC3 Dolby Digital, 2/0 (L,R) ch, ~192 kbps - Английская
  • Фильм основан на реальных событиях, пережитых тайным агентом ФБР Джозефом Д. Пистоне.
    Все события, произошедшие с ним он впоследствии описал в книге «Донни Браско: моя подпольная жизнь в мафии».
  • Реальный Джо Пистоне прожил в «роли» мафиози 6 лет.
    Сейчас Джо и его семья по-прежнему живут под покровительством Программы защиты свидетелей, место их проживания не разглашается.
  • Джо Пистоне много времени провел на съемочной площадке фильма, помогая актерам воссоздать события, описываемые в фильме.
  • Для более реалистичного исполнения роли Браско Джонни Деппу пришлось заниматься бодибилдингом.
  • В фильме подразумевается, что Лефти, уходя на встречу, заранее знал что его убьют. В действительности, его прототип Бенджамин Руджеро умер в 1995 году от рака.
  • За проявленный героизм Джо Пистоне получает от ФБР медаль и 500$ премии. Мафия объявила, что готова дать награду в 500 000 $ за его убийство.
Оскар, 1998 год
Номинации (1):

Лучший адаптированный сценарий

Европейская киноакадемия, 1997 год
Номинации (1):

Приз Screen International Award
Формат : AVI
Формат/Информация : Audio Video Interleave
Профиль формата : OpenDML
Размер файла : 2,23 Гбайт
Продолжительность : 2 ч. 27 м.
Общий поток : 2172 Кбит/сек
Программа кодирования : VirtualDubMod 1.5.10.3 | www.virtualdub-fr.org || (build 2550/release)
Библиотека кодирования : VirtualDubMod build 2550/release

Видео
Идентификатор : 0
Формат : MPEG-4 Visual
Профиль формата : Advanced Simple@L5
Параметр BVOP формата : 1
Параметр QPel формата : Нет
Параметр GMC формата : Без точки перехода
Параметр матрицы формата : Выборочная
Идентификатор кодека : XVID
Идентификатор кодека/Подсказка : XviD
Продолжительность : 2 ч. 27 м.
Битрейт : 1572 Кбит/сек
Ширина : 720 пикселей
Высота : 304 пикселя
Соотношение сторон : 2,35:1
Частота кадров : 23,976 кадра/сек
Цветовое пространство : YUV
Субдискретизация насыщенности : 4:2:0
Битовая глубина : 8 бит
Тип развёртки : Прогрессивная
Метод сжатия : С потерями
Бит/(Пиксели*Кадры) : 0.300
Размер потока : 1,62 Гбайт (72%)
Библиотека кодирования : XviD 65

Аудио #1
Идентификатор : 1
Формат : AC-3
Формат/Информация : Audio Coding 3
Расширение режима : CM (complete main)
Параметр Endianness формата : Big
Идентификатор кодека : 2000
Продолжительность : 2 ч. 27 м.
Вид битрейта : Постоянный
Битрейт : 192 Кбит/сек
Каналы : 2 канала
Расположение каналов : Front: L R
Частота : 48,0 КГц
Битовая глубина : 16 бит
Метод сжатия : С потерями
Размер потока : 202 Мбайт (9%)
Выравнивание : Разделение по промежуткам
Продолжительность промежутка : 42 мс. (1,00 видеокадр)
Время предзагрузки промежутка : 500 мс.

Аудио #2
Идентификатор : 2
Формат : AC-3
Формат/Информация : Audio Coding 3
Расширение режима : CM (complete main)
Параметр Endianness формата : Big
Идентификатор кодека : 2000
Продолжительность : 2 ч. 27 м.
Вид битрейта : Постоянный
Битрейт : 192 Кбит/сек
Каналы : 2 канала
Расположение каналов : Front: L R
Частота : 48,0 КГц
Битовая глубина : 16 бит
Метод сжатия : С потерями
Размер потока : 202 Мбайт (9%)
Выравнивание : Разделение по промежуткам
Продолжительность промежутка : 42 мс. (1,00 видеокадр)
Время предзагрузки промежутка : 500 мс.

Аудио #3
Идентификатор : 3
Формат : AC-3
Формат/Информация : Audio Coding 3
Расширение режима : CM (complete main)
Параметр Endianness формата : Big
Идентификатор кодека : 2000
Продолжительность : 2 ч. 27 м.
Вид битрейта : Постоянный
Битрейт : 192 Кбит/сек
Каналы : 2 канала
Расположение каналов : Front: L R
Частота : 48,0 КГц
Битовая глубина : 16 бит
Метод сжатия : С потерями
Размер потока : 202 Мбайт (9%)
Выравнивание : Разделение по промежуткам
Продолжительность промежутка : 42 мс. (1,00 видеокадр)
Время предзагрузки промежутка : 500 мс.




Время раздачи: 24 /7 Почти всегда
Donnie Brasco (Extended Cut) (Gavrilov, Nemahov, Eng) (BDRip)_[nnm-club.ru].torrent
 Торрент: Платиновая раздача  Зарегистрирован
 
Скачать


Примагнититься
 Зарегистрирован:   23 Июн 2012 05:41:46
 Размер:   2.23 GB  (
 Рейтинг:   4.9 (Голосов: 58)
 Поблагодарили:   213
 Проверка:   Оформление проверено модератором 23 Июн 2012 22:29:28
Как cкачать  ·  Как раздать  ·  Правильно оформить  ·  Поднять ратио!  
IrekAkhmet
Стаж: 13 лет 3 мес.
Сообщений: 278
Ratio: 570.501
Раздал: 105.4 TB
Поблагодарили: 369
100%
russia.gif
Нестареющая классика.
Pyff
Стаж: 16 лет 3 мес.
Сообщений: 152
Ratio: 6.302
Поблагодарили: 85
100%
Откуда: Питер
russia.gif
Кто смотрел в разных переводах?
Посоветуйте что качать?
vitt_stk
Стаж: 10 лет 11 мес.
Сообщений: 4
Ratio: 8.9
3.47%
скорости пожалуйста))
Показать сообщения:   
Начать новую тему   Ответить на тему    Торрент-трекер NNM-Club -> Зарубежное кино -> Зарубежные Фильмы (SD) Часовой пояс: GMT + 3
Страница 1 из 1