Классический форум-трекер
canvas not supported
Нас вместе: 4 231 876

NG: Суперсооружения: Мегазаводы. MV Agusta / MegaStructures. Megafactories: MV Agusta (2011) HDTVRip [H.264/720p]


 
 
RSS
Начать новую тему   Ответить на тему    Торрент-трекер NNM-Club -> Архив торрентов -> Архив Документалистики и TV
Автор Сообщение
Blaidrg ®
Стаж: 12 лет 11 мес.
Сообщений: 167
Ratio: 83.161
Поблагодарили: 6990
100%
russia.gif
NG: Суперсооружения: Мегазаводы. MV Agusta / MegaStructures. Megafactories: MV Agusta (2011) HDTVRip [H.264/720p]
Русское название: NG: Суперсооружения: Мегазаводы. MV Agusta
Оригинальное название: MegaStructures. Megafactories: MV Agusta
Режиссер / Телекомпания: National Geographic Channel
Год выпуска: 2011
Жанр: Документальный

Описание:
MV Agusta – производитель мотоциклов, расположенный в городе Касцина Коста близ Милана, Италия. Образована 12 февраля 1945 года как ответвление авиационной компании Agusta, учрежденной в 1923 году графом Джованни Агуста (Giovanni Agusta). Основатель авиастроительной фирмы умер в 1927 году, оставив её на попечение своих вдовы Гуссепины и сыновей – Доменико, Винченцо, Марио и Коррадо. Винченцо и Доменико Агуста (Vincenzo & Domenico Agusta) в конце Второй мировой войны с целью сохранения рабочих мест в своей компании учредили MV Agusta. Братья учли, что в трудное послевоенное время на рынке будут востребованы дешевые и действенные транспортные средства. Литеры MV были взяты как начальные буквы слов Meccanica Verghera («Механика Вергера», где Verghera – город, в котором было начато производство мотоциклов). Компания начала выпускать мотоциклы стиля Café racer, преимущественно с двигателями рабочим объемом 125 – 150 кубических сантиметров. Когда же в 1960-х годах продажи такой техники стали падать, фирма начала выпускать мотоциклы с более объемными двигателями, но в меньших количествах. Сначала это были машины с двухцилиндровыми двигателями рабочим объемом 250, а ещё позже – 350-кубических сантиметров, к концу 1960-х годов – с четырёхцилиндровыми моторами 600, а потом и 750 кубических сантиметров. Следите за тем, как состоящая из отца и сына команда менеджеров пытается осуществить смелый план по возрождению легендарного бренда мотоциклов.

Продолжительность: 00:45:00

Перевод: Одноголосый закадровый, профессиональный

Видеокодек: MPEG-4 AVC/H.264
Битрейт видео: ~25.00fps ~2565 kb/s
Размер кадра: 1280x720
Качество видео: HDTVRip [720p]
Аудиокодек: AC3 2.0
Битрейт аудио: 48000Hz stereo 192kbps
Общее
Уникальный идентификатор : 244617333368583539995703794796342298444 (0xB80795B08AD11BFA9DA9E6492A4C474C)
Полное имя : National.Geographic.Megafactories\National.Geographic.HD.Megafactories.MV.Agusta.2011.720p.HDTV.x264.mkv
Формат : Matroska
Версия формата : Version 2
Размер файла : 906 Мбайт
Продолжительность : 45 м.
Общий поток : 2813 Кбит/сек
Дата кодирования : UTC 2012-07-11 09:23:14
Программа кодирования : mkvmerge v5.6.0 ('Kenya Kane') built on Jun 17 2012 19:15:15
Библиотека кодирования : libebml v1.2.3 + libmatroska v1.3.0

Видео
Идентификатор : 1
Формат : AVC
Формат/Информация : Advanced Video Codec
Профиль формата : High@L4.1
Параметр CABAC формата : Да
Параметр ReFrames формата : 5 кадров
Режим смешивания : Header stripping
Идентификатор кодека : V_MPEG4/ISO/AVC
Продолжительность : 45 м.
Битрейт : 2565 Кбит/сек
Ширина : 1280 пикселей
Высота : 720 пикселей
Соотношение сторон : 16:9
Частота кадров : 25,000 кадров/сек
Цветовое пространство : YUV
Субдискретизация насыщенности : 4:2:0
Битовая глубина : 8 бит
Тип развёртки : Прогрессивная
Бит/(Пиксели*Кадры) : 0.111
Размер потока : 826 Мбайт (91%)
Библиотека кодирования : x264 core 125 r2200 999b753
Настройки программы : cabac=1 / ref=5 / deblock=1:-3:-3 / analyse=0x3:0x113 / me=umh / subme=7 / psy=1 / psy_rd=1.00:0.00 / mixed_ref=1 / me_range=16 / chroma_me=1 / trellis=1 / 8x8dct=1 / cqm=0 / deadzone=21,11 / fast_pskip=0 / chroma_qp_offset=-2 / threads=24 / lookahead_threads=4 / sliced_threads=0 / nr=0 / decimate=1 / interlaced=0 / bluray_compat=0 / constrained_intra=0 / bframes=3 / b_pyramid=2 / b_adapt=1 / b_bias=0 / direct=1 / weightb=1 / open_gop=0 / weightp=2 / keyint=250 / keyint_min=25 / scenecut=40 / intra_refresh=0 / rc_lookahead=40 / rc=crf / mbtree=1 / crf=20.0 / qcomp=0.60 / qpmin=0 / qpmax=69 / qpstep=4 / ip_ratio=1.40 / aq=1:1.00
Default : Да
Forced : Да
Основные цвета : BT.709-5, BT.1361, IEC 61966-2-4, SMPTE RP177
Характеристики трансфера : BT.709-5, BT.1361
Коэффициенты матрицы : BT.709-5, BT.1361, IEC 61966-2-4 709, SMPTE RP177

Аудио
Идентификатор : 2
Формат : AC-3
Формат/Информация : Audio Coding 3
Расширение режима : CM (complete main)
Параметр Endianness формата : Big
Режим смешивания : Header stripping
Идентификатор кодека : A_AC3
Продолжительность : 45 м.
Вид битрейта : Постоянный
Битрейт : 192 Кбит/сек
Каналы : 2 канала
Расположение каналов : Front: L R
Частота : 48,0 КГц
Битовая глубина : 16 бит
Метод сжатия : С потерями
Размер потока : 61,8 Мбайт (7%)
Default : Да
Forced : Нет

[National Geographic+Discovery+EXPLORER] Мегаструктуры / Суперсооружения / MegaStructures HD 720p

Скриншоты:


Время раздачи: 24/7 - круглосуточно до 10 скачавших
[NNM-Club.ru]_National.Geographic.HD.Megafactories.MV.Agusta.2011.720p.HDTV.x264.mkv.torrent
 Торрент: Платиновая раздача  Зарегистрирован
 
Скачать


Примагнититься
 Зарегистрирован:   13 Июл 2012 09:44:14
 Размер:   906 MB  (
 Рейтинг:    (Голосов: 9)
 Поблагодарили:   42
 Проверка:   Оформление проверено модератором 16 Июл 2012 14:10:42
Как cкачать  ·  Как раздать  ·  Правильно оформить  ·  Поднять ратио!  
Топик был перенесен из форума Мега-Проекты в форум Архив Документалистики и TV

Причина переноса: Отсутствие сидов более месяца....
svlesin
Показать сообщения:   
Начать новую тему   Ответить на тему    Торрент-трекер NNM-Club -> Архив торрентов -> Архив Документалистики и TV Часовой пояс: GMT + 3
Страница 1 из 1