Классический форум-трекер
canvas not supported
Нас вместе: 4 231 861

NG: Суперсооружения: Мегазаводы. Форд F-150 / MegaStructures. Megafactories: Ford F-150 (2012) HDTVRip [H.264/720p]


 
 
RSS
Начать новую тему   Ответить на тему    Торрент-трекер NNM-Club -> Архив торрентов -> Архив Документалистики и TV
Автор Сообщение
Blaidrg ®
Стаж: 12 лет 11 мес.
Сообщений: 167
Ratio: 83.16
Поблагодарили: 6990
100%
russia.gif
NG: Суперсооружения: Мегазаводы. Форд F-150 / MegaStructures. Megafactories: Ford F-150 (2012) HDTVRip [H.264/720p]
Русское название: NG: Суперсооружения: Мегазаводы. Форд F-150
Оригинальное название: MegaStructures. Megafactories: Ford F-150
Режиссер / Телекомпания: National Geographic Channel
Год выпуска: 2012
Жанр: Документальный

Описание:
Это новый пикап Форд F-150. Двенадцатое поколение пикапов, выпускающихся уже почти 60 лет. Когда автоиндустрия США переживала кризис, модель F-150 помогла «форду» пережить трудные времена. Эта машина способна вести груз в кузове, на прицепе, но она может и порезвиться. "Мы собираем все виды F-150: от скромных рабочих лошадок до практически автомобилей класса люкс". И собираются они здесь — на мегазаводе «Форд».

Продолжительность: 00:44:59

Перевод: Отсутствует. Одноголосый закадровый, профессиональный (отдельным файлом )

Видеокодек: MPEG-4 AVC/H.264
Битрейт видео: ~25.00fps ~3013 kb/s
Размер кадра: 1280x720
Качество видео: HDTVRip [720p]
Аудиокодек: AC3 2.0
Битрейт аудио: 48000Hz stereo 160kbps
Общее
Уникальный идентификатор : 224191662231453141996867182544788334269 (0xA8A9BE59C646E3AB8146108BADB726BD)
Полное имя : National.Geographic.Megafactories\National.Geographic.HD.Megafactories.Ford.F150.2012.720p.HDTV.x264.mkv
Формат : Matroska
Версия формата : Version 2
Размер файла : 1,02 Гбайт
Продолжительность : 44 м.
Общий поток : 3238 Кбит/сек
Дата кодирования : UTC 2012-07-08 10:21:05
Программа кодирования : mkvmerge v5.3.0 ('I could have danced') built on Feb 9 2012 10:38:07
Библиотека кодирования : libebml v1.2.3 + libmatroska v1.3.0

Видео
Идентификатор : 1
Формат : AVC
Формат/Информация : Advanced Video Codec
Профиль формата : High@L4.1
Параметр CABAC формата : Да
Параметр ReFrames формата : 5 кадров
Идентификатор кодека : V_MPEG4/ISO/AVC
Продолжительность : 44 м.
Битрейт : 3013 Кбит/сек
Ширина : 1280 пикселей
Высота : 720 пикселей
Соотношение сторон : 16:9
Частота кадров : 25,000 кадров/сек
Цветовое пространство : YUV
Субдискретизация насыщенности : 4:2:0
Битовая глубина : 8 бит
Тип развёртки : Прогрессивная
Бит/(Пиксели*Кадры) : 0.131
Размер потока : 969 Мбайт (93%)
Библиотека кодирования : x264 core 125 r2200 999b753
Настройки программы : cabac=1 / ref=5 / deblock=1:0:0 / analyse=0x3:0x113 / me=umh / subme=8 / psy=1 / psy_rd=1.00:0.00 / mixed_ref=1 / me_range=16 / chroma_me=1 / trellis=1 / 8x8dct=1 / cqm=0 / deadzone=21,11 / fast_pskip=1 / chroma_qp_offset=-2 / threads=12 / lookahead_threads=2 / sliced_threads=0 / nr=0 / decimate=1 / interlaced=0 / bluray_compat=0 / constrained_intra=0 / bframes=3 / b_pyramid=2 / b_adapt=2 / b_bias=0 / direct=3 / weightb=1 / open_gop=0 / weightp=2 / keyint=250 / keyint_min=25 / scenecut=40 / intra_refresh=0 / rc_lookahead=50 / rc=crf / mbtree=1 / crf=21.0 / qcomp=0.60 / qpmin=0 / qpmax=69 / qpstep=4 / ip_ratio=1.40 / aq=1:1.00
Язык : English
Default : Да
Forced : Нет

Аудио
Идентификатор : 2
Формат : MPEG Audio
Версия формата : Version 1
Профиль формата : Layer 2
Режим : Joint stereo
Идентификатор кодека : A_MPEG/L2
Идентификатор кодека/Подсказка : MP2
Продолжительность : 44 м.
Вид битрейта : Постоянный
Битрейт : 160 Кбит/сек
Каналы : 2 канала
Частота : 48,0 КГц
Метод сжатия : С потерями
Размер потока : 51,4 Мбайт (5%)
Язык : English
Default : Да
Forced : Нет

[National Geographic+Discovery+EXPLORER] Мегаструктуры / Суперсооружения / MegaStructures HD 720p

Скриншоты:


Время раздачи: 24/7 - круглосуточно до 10 скачавших
[NNM-Club.ru]_National.Geographic.HD.Megafactories.Ford.F150.2012.720p.HDTV.x264.mkv.torrent
 Торрент: Платиновая раздача  Зарегистрирован
 
Скачать


Примагнититься
 Зарегистрирован:   13 Июл 2012 10:12:08
 Размер:   1.02 GB  (
 Рейтинг:   4.8 (Голосов: 16)
 Поблагодарили:   67
 Проверка:   Оформление проверено модератором 16 Июл 2012 14:10:37
Как cкачать  ·  Как раздать  ·  Правильно оформить  ·  Поднять ратио!  
doctor75
Стаж: 13 лет 10 мес.
Сообщений: 173
Ratio: 6.75
10.96%
ВСЕ НА АНГЛИЙСКОМ!

_________________
Спорить с тренером по борьбе может
только тренер по стрельбе.
Blaidrg ®
Стаж: 12 лет 11 мес.
Сообщений: 167
Ratio: 83.16
Поблагодарили: 6990
100%
russia.gif
Спасибо за подсказку! не тот залил файл!!!
выложена отдельно звуковая дорога .
Прошу прощения.
Топик был перенесен из форума Мега-Проекты в форум Архив Документалистики и TV

Причина переноса: Нет сида больше 30 дней....
svlesin
Показать сообщения:   
Начать новую тему   Ответить на тему    Торрент-трекер NNM-Club -> Архив торрентов -> Архив Документалистики и TV Часовой пояс: GMT + 3
Страница 1 из 1