Классический форум-трекер
canvas not supported
Нас вместе: 4 231 876

NG: Суперсооружения: Мегазаводы. Guinness/ MegaStructures. Megafactories: Guinness (2011) HDTVRip [H.264/720p]


 
 
RSS
Начать новую тему   Ответить на тему    Торрент-трекер NNM-Club -> Архив торрентов -> Архив Документалистики и TV
Автор Сообщение
Blaidrg ®
Стаж: 12 лет 11 мес.
Сообщений: 167
Ratio: 83.161
Поблагодарили: 6990
100%
russia.gif
NG: Суперсооружения: Мегазаводы. Guinness/ MegaStructures. Megafactories: Guinness (2011) HDTVRip [H.264/720p]
Русское название: NG: Суперсооружения: Мегазаводы. Guinness
Оригинальное название: MegaStructures. Megafactories: Guinness
Режиссер / Телекомпания: National Geographic Channel
Год выпуска: 2011
Жанр: Документальный

Описание:
«Ги́ннесс» (англ. Guinness) — пивной бренд, принадлежащий компании Diageo (со штаб-квартирой в Лондоне), изначально относившийся к ирландской компании Arthur Guinness Son & Co, основанной в 1759 году пивоваром Артуром Гиннессом (Arthur Guinness). Пиво «Гиннесс» — самое известное и потребляемое ирландское пиво, ставшее легендой Ирландии и символом дня святого Патрика. Отличительной особенностью пива долгое время являлся жжёный аромат, который получался из-за использования жареного ячменя. Пиво производится из ячменя (в Нигерии его заменяют на сорго), воды, хмеля и дрожжей. На протяжении многих лет отстоявшееся пиво смешивали со свежесваренным, что придавало резкий молочный привкус и характерную пену. Позже компания Гиннесса отказалась от смешивания отстоявшегося и свежесваренного пива, и теперь для создания пены при разливе пиво обогащают азотом; кроме того, в качестве основы производства пива компании по лицензии сейчас зачастую служит концентрированный экстракт «FES», который можно разводить на основе лагера. Побывайте на пивоваренном заводе Сент-Джеймс Гейт, крупнейшем в мире производителе тёмного пива, занимающем более 19 гектаров в центре Дублина.

Продолжительность: 00:44:58

Перевод: Одноголосый закадровый, профессиональный

Видеокодек: MPEG-4 AVC/H.264
Битрейт видео: ~25.00fps ~3163 kb/s
Размер кадра: 1280x720
Качество видео: HDTVRip [720p]
Аудиокодек: AC3 2.0
Битрейт аудио: 48000Hz stereo 192kbps
Общее
Уникальный идентификатор : 236285880668621415465077383667706588616 (0xB1C3015B716DDCE28BD0099B08156DC8)
Полное имя : National.Geographic.Megafactories\National.Geographic.HD.Megafactories.Guinness.2011.720p.HDTV.x264.mkv
Формат : Matroska
Версия формата : Version 2
Размер файла : 1,08 Гбайт
Продолжительность : 44 м.
Общий поток : 3423 Кбит/сек
Дата кодирования : UTC 2012-06-17 08:26:22
Программа кодирования : mkvmerge v5.6.0 ('Kenya Kane') built on May 27 2012 16:44:04
Библиотека кодирования : libebml v1.2.3 + libmatroska v1.3.0

Видео
Идентификатор : 1
Формат : AVC
Формат/Информация : Advanced Video Codec
Профиль формата : High@L4.1
Параметр CABAC формата : Да
Параметр ReFrames формата : 5 кадров
Режим смешивания : Header stripping
Идентификатор кодека : V_MPEG4/ISO/AVC
Продолжительность : 44 м.
Битрейт : 3163 Кбит/сек
Ширина : 1280 пикселей
Высота : 720 пикселей
Соотношение сторон : 16:9
Частота кадров : 25,000 кадров/сек
Цветовое пространство : YUV
Субдискретизация насыщенности : 4:2:0
Битовая глубина : 8 бит
Тип развёртки : Прогрессивная
Бит/(Пиксели*Кадры) : 0.137
Размер потока : 1018 Мбайт (92%)
Библиотека кодирования : x264 core 125 r2200 999b753
Настройки программы : cabac=1 / ref=5 / deblock=1:0:0 / analyse=0x3:0x113 / me=umh / subme=8 / psy=1 / psy_rd=1.00:0.00 / mixed_ref=1 / me_range=16 / chroma_me=1 / trellis=1 / 8x8dct=1 / cqm=0 / deadzone=21,11 / fast_pskip=1 / chroma_qp_offset=-2 / threads=3 / lookahead_threads=1 / sliced_threads=0 / nr=0 / decimate=1 / interlaced=0 / bluray_compat=0 / constrained_intra=0 / bframes=3 / b_pyramid=2 / b_adapt=2 / b_bias=0 / direct=3 / weightb=1 / open_gop=0 / weightp=2 / keyint=250 / keyint_min=25 / scenecut=40 / intra_refresh=0 / rc_lookahead=50 / rc=crf / mbtree=1 / crf=20.0 / qcomp=0.60 / qpmin=0 / qpmax=69 / qpstep=4 / ip_ratio=1.40 / aq=1:1.00
Default : Да
Forced : Нет

Аудио
Идентификатор : 2
Формат : AC-3
Формат/Информация : Audio Coding 3
Расширение режима : CM (complete main)
Параметр Endianness формата : Big
Режим смешивания : Header stripping
Идентификатор кодека : A_AC3
Продолжительность : 44 м.
Вид битрейта : Постоянный
Битрейт : 192 Кбит/сек
Каналы : 2 канала
Расположение каналов : Front: L R
Частота : 48,0 КГц
Битовая глубина : 16 бит
Метод сжатия : С потерями
Размер потока : 61,8 Мбайт (6%)
Default : Да
Forced : Нет

[National Geographic+Discovery+EXPLORER] Мегаструктуры / Суперсооружения / MegaStructures HD 720p

Скриншоты:


Время раздачи: 24/7 - круглосуточно до 10 скачавших
[NNM-Club.ru]_National.Geographic.HD.Megafactories.Guinness.2011.720p.HDTV.x264.mkv.torrent
 Торрент: Платиновая раздача  Зарегистрирован
 
Скачать


Примагнититься
 Зарегистрирован:   13 Июл 2012 11:48:43
 Размер:   1.08 GB  (
 Рейтинг:   4.5 (Голосов: 31)
 Поблагодарили:   91
 Проверка:   Оформление проверено модератором 16 Июл 2012 14:10:50
Как cкачать  ·  Как раздать  ·  Правильно оформить  ·  Поднять ратио!  
Blaidrg ®
Стаж: 12 лет 11 мес.
Сообщений: 167
Ratio: 83.161
Поблагодарили: 6990
100%
russia.gif
Самое любимое мое пиво. купить бы настоящего ирланского...
Blaidrg ®
Стаж: 12 лет 11 мес.
Сообщений: 167
Ratio: 83.161
Поблагодарили: 6990
100%
russia.gif
купил - попробовал - великолепно!!!! =)
Топик был перенесен из форума Мега-Проекты в форум Архив Документалистики и TV

Причина переноса: Нет сида больше 3-х месяцев.

Исправил релиз - напиши ЛС svlesin, дав ссылку на релиз.
Если нет ответа 24 часа - нажми на кнопку "Обратить внимание модераторов".
Показать сообщения:   
Начать новую тему   Ответить на тему    Торрент-трекер NNM-Club -> Архив торрентов -> Архив Документалистики и TV Часовой пояс: GMT + 3
Страница 1 из 1