Классический форум-трекер
canvas not supported
Нас вместе: 4 234 313

Фестиваль Нашествие 2012 День второй <Rock> (2012.07.07) WebRip


 
 
RSS
Начать новую тему   Ответить на тему    Торрент-трекер NNM-Club -> Театр и Музыкальное видео -> Концерты (SD)
Автор Сообщение
Metr_72 ®
Релизер-меломан
Стаж: 17 лет 2 мес.
Сообщений: 2434
Ratio: 13.061
Поблагодарили: 28051
100%
Откуда: Rivne Сельская местность
ukraine.gif
Фестиваль Нашествие 2012 День второй <Rock> (2012.07.07) WebRip

Жанр:
Rock
Описание:
Запись второго дня самого большого фестиваля России и ближнего зарубежья "Нашествие 2012"
Под лучами солнца на неё выходит не менее солнечная Светлана Сурганова. Было видно, что к своему выступлении на Нашествии группа «Сурганова и Оркестр» основательно готовилась. Воздушные гимнасты сопровождали чувственное исполнение песни «Не покидай меня, родная». Светлана с коллективом исполнили песню «Еще один раз» группы «Аквариум», которая, кстати, вскоре вышла на «Формат». Фан-клуб Сургановой в очередной раз доказал, что это один из самых мощных и преданных фан-клубов среди наших исполнителей.

Продолжительность: 05:29:31
Видео: AVC/H.264, 1083 kbps, 854x480
Аудио: AAC 2.0, 129 kbps
Во время выступления Сургановой первые ряды фан-зоны окрасились в оранжевый цвет: в руках поклонников очутилось множество оранжевых роз, в небо полетели воздушные шары, плакаты с портретом Светы – лишь часть всей любви её фанатов.
В завершении фестивального сета из специальных «пушек» зрителей фан-зоны осыпал «серебряный дождь» из фольги.
30 минут светланы яковлевны подошли к концу и ее место у руля занял громогласный князь.
отщепенец киша, но все такой же грязный и немытый панк андрей князь. весело и задорно он проорал несколько песен, отдельно порадовав публику куклой колдуна и прыгну со скалы и, конечно же, аделью! его сет также был коротким, в тридцать минут и вот, на сцене уже группа мураками. веселые девочки-энерджайзеры пропрыгали все свое время бодрыми ланями по сцене, спели много хороших песен, парочку новых и так же весело и задорно, уступили место мрачным кукрыниксам.
уж кого-кого, а их я слушать категорически не хотела, но наш маленький отряд упорно стоял у сцены под флагом и ждал, еще такого не скорого, выступления кипелова.
я решила получать позитив от того, что имеем и стала вслушиваться в тексты депрессивных питерцев. выяснила, что все не так плохо, как я предполагала. и даже очень они и ничего)
после кукрыниксов выскочили на сцену так распиаренные мне пандой луновцы. забавная барышня-солистка лу, получила очень меткий коммент от миши, который стоял у меня за спиной в тот момент: "красивая девчонка, и поет отлично, но, говорят, стерва та еще!". бойко попрыгав и погроулив, они спели много нового, что мне не особо по душе было, так как они слишком уж ушли в социальные тексты, что напрягает не хило. я решила, что стоять дальше под сценой для меня смысла не имеет. у меня за все это время начала раскалываться от боли спина, ноги и музыку я уже воспринимала не как удовольствие, а как раздражающий фактор.
я уселась на травке у левого монитора и чудно провела там последние пол часа из часового сета луны.
после ко мне присоединилась руся и было принято решение оставлять людку у сцены, а самим бодрой рысцой валить за пивом, ибо следующими на сцену выходили грандиозно-ужасно-одиозные аквариум. уважаю безмерно, но слушать - увольте. сгоняв за карематом, мы заняли стратегическую позицию между ларьками с пивом и туалетом и там и прослушали великого бг (я даже поплясала маленько под вавилон)))) и любимого нами чижа и со. сил идти под сцену не было никаких и мы решили, что сидя здесь мы не хуже проведем время.
забавные пьяные люди знакомились с нами, пили наше пиво, стреляли сигареты, фоткались с нами и всячески украшали наше и без того чудесное время в ожидании кипелова.
пикник прошел мимо нас вообще. мы его проболтали, пробегали в туалет и всячески прозябали. я не слышала, по моему, ни одной песни (хи-хи). и вот, заслышав знакомые аккорды, мы ломанулись обратно в фан-зону, ибо наш гуру и мастер валерий александрович, уже начал свое выступление. отдельная тема о том, кем я прихожусь фан-клубу кипелова и моем личном отношении к этой группе, абсолютно не помешало мне сполна насладиться их выступлением на каремате в сторонке, пока мои барышни, скакали, аки оголтевшие, у сцены под флагом
Источник http://kipelov.net.ua/forum/showthread.php?t=2231
.
Треклист:

01. Сурганова и Оркестр 00:00
02. КняZz 38:32
03. Мураками 01:06:52
04. Кукрыниксы 01:33:00
05. Louna 02:06:37
06. Аквариум 03:00:05
07. Чиж & Co 03:41:44
08. Пикник 04:19:41
09. Кипелов 04:47:12
Код:
Полное имя                               : Z:\Концерты\Nashestvie 2012 den' 2.flv
Формат                                   : Flash Video
Размер файла                             : 2,81 Гбайт
Продолжительность                        : 5 ч. 29 м.
Общий поток                              : 1220 Кбит/сек
httphostheader                           : o-o.preferred.ams04s08.v16.nonxt8.c.youtube.com

Видео
Формат                                   : AVC
Формат/Информация                        : Advanced Video Codec
Профиль формата                          : Main@L3.1
Параметр CABAC формата                   : Да
Параметр ReFrames формата                : 3 кадра
Идентификатор кодека                     : 7
Продолжительность                        : 5 ч. 29 м.
Битрейт                                  : 1083 Кбит/сек
Ширина                                   : 854 пикселя
Высота                                   : 480 пикселей
Соотношение сторон                       : 16:9
Режим частоты кадров                     : Постоянный
Частота кадров                           : 29,970 кадров/сек
Цветовое пространство                    : YUV
Субдискретизация насыщенности            : 4:2:0
Битовая глубина                          : 8 бит
Тип развёртки                            : Прогрессивная
Бит/(Пиксели*Кадры)                      : 0.088
Размер потока                            : 2,49 Гбайт (89%)

Аудио
Формат                                   : AAC
Формат/Информация                        : Advanced Audio Codec
Профиль формата                          : LC
Идентификатор кодека                     : 10
Продолжительность                        : 5 ч. 29 м.
Битрейт                                  : 129 Кбит/сек
Каналы                                   : 2 канала
Расположение каналов                     : Front: L R
Частота                                  : 44,1 КГц
Метод сжатия                             : С потерями
Размер потока                            : 303 Мбайт (11%)

.


Время раздачи: 7 / 24 . . . Не забывайте нажимать на

Реставрация sklad600
[NNM-Club.ru]_Nashestvie 2012 den' 2.flv.torrent
 Торрент: Платиновая раздача  Зарегистрирован
 
Скачать


Примагнититься
 Зарегистрирован:   15 Июл 2012 10:18:43
 Размер:   2.81 GB  (
 Рейтинг:   5 (Голосов: 28)
 Поблагодарили:   105
 Проверка:   Оформление проверено модератором 16 Июл 2012 01:22:35
Как cкачать  ·  Как раздать  ·  Правильно оформить  ·  Поднять ратио!  
Yamskih
Стаж: 14 лет 2 мес.
Сообщений: 5
Ratio: 3.092
100%
Спасибо за второй день. А где первый и третий дни?
koh_1
Стаж: 13 лет 10 мес.
Сообщений: 84
Ratio: 568.969
100%
ussr.gif
Yamskih писал(а): Перейти к сообщению
Спасибо за второй день. А где первый и третий дни?

Поддерживаю просьбу. Если есть у кого - выкладывайте. А то я в онлайне смог посмотреть только Гарика с Неприкасаемыми и Чай-Ф'ов.

_________________
Alles wird sein gut..., auch wenn alles anders sein wird ...
Metr_72 ®
Релизер-меломан
Стаж: 17 лет 2 мес.
Сообщений: 2434
Ratio: 13.061
Поблагодарили: 28051
100%
Откуда: Rivne Сельская местность
ukraine.gif
Нашествие 2012. День третий. Фестиваль Нашествие 2012 День третий <Rock> (2012.07.07) WebRip
nikolaevsa
Стаж: 14 лет
Сообщений: 15
Ratio: 5.262
62.31%
Yamskih писал(а): Перейти к сообщению
Спасибо за второй день. А где первый и третий дни?


а первый пожалуйста скиньте)))
Показать сообщения:   
Начать новую тему   Ответить на тему    Торрент-трекер NNM-Club -> Театр и Музыкальное видео -> Концерты (SD) Часовой пояс: GMT + 3
Страница 1 из 1