Классический форум-трекер
canvas not supported
Нас вместе: 4 231 868

NG: Суперсооружения: Мегазаводы. Бакарди / MegaStructures. Megafactories: Bacardi (2011) HDTVRip [H.264/720p]


 
 
RSS
Начать новую тему   Ответить на тему    Торрент-трекер NNM-Club -> Зарубежные TV-бренды -> Мега-Проекты
Автор Сообщение
Blaidrg ®
Стаж: 12 лет 11 мес.
Сообщений: 167
Ratio: 83.161
Поблагодарили: 6990
100%
russia.gif
NG: Суперсооружения: Мегазаводы. Бакарди / MegaStructures. Megafactories: Bacardi (2011) HDTVRip [H.264/720p]
Русское название: NG: Суперсооружения: Мегазаводы. Бакарди
Оригинальное название: MegaStructures. Megafactories: Bacardi
Режиссер / Телекомпания: National Geographic Channel
Год выпуска: 2011
Жанр: Документальный

Описание:
Bacardi Limited — крупная компания, базирующаяся на Бермудских островах, производитель спиртных напитков. Наиболее известна, как производитель ромов, таких как Bacardi Superior и Bacardi 151. Штаб-квартира находится в Гамильтоне (Бермудские острова). Группе Bacardi Limited (BM) принадлежит более 100 алкогольных торговых марок, в том числе Martini, Bacardi, Dewar’s, Otard, Martini Asti. Продукция компании выпускается на 31 предприятии; общая численность персонала составляет 6 тыс. человек. Компания продает свыше 200 миллионов бутылок ежегодно, приблизительно, в 170 странах. В Сан-Хуане в Пуэрто-Рико благодаря сочетанию семейных традиций и лучших технологий производится один из самых популярных в мире ромов - Бакарди.

Продолжительность: 00:45:00

Перевод: Одноголосый закадровый, профессиональный

Видеокодек: MPEG-4 AVC/H.264
Битрейт видео: ~25.00fps ~3278 kb/s
Размер кадра: 1280x720
Качество видео: HDTVRip [720p]
Аудиокодек: AC3 2.0
Битрейт аудио: 48000Hz stereo 192kbps
General
Unique ID : 213965750083655502770576831582844064715 (0xA0F84DF4C1AE30F5BF720CAC662D93CB)
Complete name : National.Geographic.Megafactories\National.Geographic.HD.Megafactories.Bacardi.2011.720p.HDTV.x264.mkv
Format : Matroska
Format version : Version 2
File size : 1.11 GiB
Duration : 45mn 0s
Overall bit rate : 3 540 Kbps
Movie name : Super.Fabriken.S05E07.Bacardi.GERMAN.DOKU.720p.HDTV.x264-TVP
Encoded date : UTC 2012-07-04 10:39:45
Writing application : mkvmerge v5.6.0 ('Kenya Kane') built on Jun 17 2012 19:15:15
Writing library : libebml v1.2.3 + libmatroska v1.3.0
Video #1
ID : 1
Format : AVC
Format/Info : Advanced Video Codec
Format profile : High@L4.1
Format settings, CABAC : Yes
Format settings, ReFrames : 5 frames
Muxing mode : Header stripping
Codec ID : V_MPEG4/ISO/AVC
Duration : 45mn 0s
Bit rate : 3 278 Kbps
Width : 1 280 pixels
Height : 720 pixels
Display aspect ratio : 16:9
Frame rate : 25.000 fps
Color space : YUV
Chroma subsampling : 4:2:0
Bit depth : 8 bits
Scan type : Progressive
Bits/(Pixel*Frame) : 0.142
Stream size : 1.03 GiB (93%)
Title : tvp-superfabriken-s05e07-720p
Writing library : x264 core 125 r2200 999b753
Encoding settings : cabac=1 / ref=5 / deblock=1:-3:-3 / analyse=0x3:0x113 / me=umh / subme=7 / psy=1 / psy_rd=1.00:0.00 / mixed_ref=1 / me_range=16 / chroma_me=1 / trellis=1 / 8x8dct=1 / cqm=0 / deadzone=21,11 / fast_pskip=0 / chroma_qp_offset=-2 / threads=24 / lookahead_threads=4 / sliced_threads=0 / nr=0 / decimate=1 / interlaced=0 / bluray_compat=0 / constrained_intra=0 / bframes=3 / b_pyramid=2 / b_adapt=1 / b_bias=0 / direct=1 / weightb=1 / open_gop=0 / weightp=2 / keyint=250 / keyint_min=25 / scenecut=40 / intra_refresh=0 / rc_lookahead=40 / rc=crf / mbtree=1 / crf=20.0 / qcomp=0.60 / qpmin=0 / qpmax=69 / qpstep=4 / ip_ratio=1.40 / aq=1:1.00
Default : Yes
Forced : Yes
Color primaries : BT.709-5, BT.1361, IEC 61966-2-4, SMPTE RP177
Transfer characteristics : BT.709-5, BT.1361
Matrix coefficients : BT.709-5, BT.1361, IEC 61966-2-4 709, SMPTE RP177
Audio #2
ID : 2
Format : AC-3
Format/Info : Audio Coding 3
Mode extension : CM (complete main)
Muxing mode : Header stripping
Codec ID : A_AC3
Duration : 45mn 0s
Bit rate mode : Constant
Bit rate : 192 Kbps
Channel(s) : 2 channels
Channel positions : Front: L R
Sampling rate : 48.0 KHz
Bit depth : 16 bits
Compression mode : Lossy
Stream size : 61.8 MiB (5%)
Default : Yes
Forced : No

[National Geographic+Discovery+EXPLORER] Мегаструктуры / Суперсооружения / MegaStructures HD 720p

Скриншоты:


Время раздачи: 24/7 - круглосуточно до 10 скачавших
[NNM-Club.ru]_National.Geographic.HD.Megafactories.Bacardi.2011.720p.HDTV.x264.mkv.torrent
 Торрент: Платиновая раздача  Зарегистрирован
 
Скачать


Примагнититься
 Зарегистрирован:   16 Июл 2012 23:23:19
 Размер:   1.11 GB  (
 Рейтинг:   4.5 (Голосов: 17)
 Поблагодарили:   64
 Проверка:   Оформление проверено модератором 17 Июл 2012 10:21:42
Как cкачать  ·  Как раздать  ·  Правильно оформить  ·  Поднять ратио!  
Показать сообщения:   
Начать новую тему   Ответить на тему    Торрент-трекер NNM-Club -> Зарубежные TV-бренды -> Мега-Проекты Часовой пояс: GMT + 3
Страница 1 из 1