Классический форум-трекер
canvas not supported
Нас вместе: 4 231 859

NG: Суперсооружения: Мегазаводы. Frito Lay / MegaStructures. Megafactories: Frito Lay (2011) HDTVRip [H.264/720p]


 
 
RSS
Начать новую тему   Ответить на тему    Торрент-трекер NNM-Club -> Архив торрентов -> Архив Документалистики и TV
Автор Сообщение
Blaidrg ®
Стаж: 12 лет 11 мес.
Сообщений: 167
Ratio: 83.16
Поблагодарили: 6990
100%
russia.gif
NG: Суперсооружения: Мегазаводы. Frito Lay / MegaStructures. Megafactories: Frito Lay (2011) HDTVRip [H.264/720p]
Русское название: NG: Суперсооружения: Мегазаводы. Frito Lay
Оригинальное название: MegaStructures. Megafactories: Frito Lay
Режиссер / Телекомпания: National Geographic Channel
Год выпуска: 2011
Жанр: Документальный

Описание:
На заводе Фрито Лей настала жаркая пора – подготовка ко Дню независимости. На следующей неделе персонал завода произведет свыше миллиона килограммов Доритос, Фритос и американской классики. На заводе круглосуточно будут работать 12 производственных линий. Чипсы будут расфасованы, упакованы и отправлены на полки магазинов. Нужно успеть к праздничному столу. Это будет не простое 4 июля на мегазаводе Фрито Лей.

Продолжительность: 00:44:59

Перевод: Одноголосый закадровый, профессиональный

Видеокодек: MPEG-4 AVC/H.264
Битрейт видео: ~25.00fps ~3286 kb/s
Размер кадра: 1280x720
Качество видео: HDTVRip [720p]
Аудиокодек: AC3 2.0
Битрейт аудио: 48000Hz stereo 192kbps
General
Unique ID : 216512171446714177619073226702262486232 (0xA2E2BA38F0EF2E7C96753F58DDD9C4D8)
Complete name : National.Geographic.Megafactories\National.Geographic.HD.Megafactories.Frito.Lay.2011.720p.HDTV.x264.mkv
Format : Matroska
Format version : Version 2
File size : 1.12 GiB
Duration : 44mn 59s
Overall bit rate : 3 549 Kbps
Encoded date : UTC 2012-07-16 20:34:06
Writing application : mkvmerge v5.2.0 ('I can't explain') built on Dec 18 2011 18:12:03
Writing library : libebml v1.2.3 + libmatroska v1.3.0
Video #1
ID : 1
Format : AVC
Format/Info : Advanced Video Codec
Format profile : High@L4.1
Format settings, CABAC : Yes
Format settings, ReFrames : 5 frames
Muxing mode : Header stripping
Codec ID : V_MPEG4/ISO/AVC
Duration : 44mn 59s
Bit rate : 3 286 Kbps
Width : 1 280 pixels
Height : 720 pixels
Display aspect ratio : 16:9
Frame rate : 25.000 fps
Color space : YUV
Chroma subsampling : 4:2:0
Bit depth : 8 bits
Scan type : Progressive
Bits/(Pixel*Frame) : 0.143
Stream size : 1.03 GiB (93%)
Writing library : x264 core 125 r2200 999b753
Encoding settings : cabac=1 / ref=5 / deblock=1:0:0 / analyse=0x3:0x113 / me=umh / subme=7 / psy=1 / psy_rd=1.00:0.00 / mixed_ref=1 / me_range=18 / chroma_me=1 / trellis=1 / 8x8dct=1 / cqm=0 / deadzone=21,11 / fast_pskip=0 / chroma_qp_offset=-2 / threads=12 / lookahead_threads=2 / sliced_threads=0 / slices=4 / nr=0 / decimate=1 / interlaced=0 / bluray_compat=1 / constrained_intra=0 / bframes=3 / b_pyramid=0 / b_adapt=1 / b_bias=0 / direct=1 / weightb=1 / open_gop=1 / weightp=1 / keyint=60 / keyint_min=1 / scenecut=40 / intra_refresh=0 / rc_lookahead=40 / rc=crf / mbtree=1 / crf=21.0 / qcomp=0.60 / qpmin=10 / qpmax=51 / qpstep=4 / ip_ratio=1.40 / aq=1:1.00
Default : Yes
Forced : No
Color primaries : BT.709-5, BT.1361, IEC 61966-2-4, SMPTE RP177
Transfer characteristics : BT.709-5, BT.1361
Matrix coefficients : BT.709-5, BT.1361, IEC 61966-2-4 709, SMPTE RP177
Audio #2
ID : 2
Format : AC-3
Format/Info : Audio Coding 3
Mode extension : CM (complete main)
Muxing mode : Header stripping
Codec ID : A_AC3
Duration : 44mn 59s
Bit rate mode : Constant
Bit rate : 192 Kbps
Channel(s) : 2 channels
Channel positions : Front: L R
Sampling rate : 48.0 KHz
Bit depth : 16 bits
Compression mode : Lossy
Stream size : 61.8 MiB (5%)
Language : Russian
Default : Yes
Forced : No

[National Geographic+Discovery+EXPLORER] Мегаструктуры / Суперсооружения / MegaStructures HD 720p

Скриншоты:


Время раздачи: 24/7 - круглосуточно до 10 скачавших
[NNM-Club.ru]_National.Geographic.HD.Megafactories.Frito.Lay.2011.720p.HDTV.x264.mkv.torrent
 Торрент: Золотая раздача  Зарегистрирован
 
Зарегистрируйтесь и скачайте торрент!
11.4 KB

Примагнититься
 Зарегистрирован:   16 Июл 2012 23:45:08
 Размер:   1.12 GB  (
 Рейтинг:   4.6 (Голосов: 14)
 Поблагодарили:   54
 Проверка:   Оформление проверено модератором 17 Июл 2012 09:52:52
Как cкачать  ·  Как раздать  ·  Правильно оформить  ·  Поднять ратио!  
Злой Перец
 
Стаж: 13 лет
Сообщений: 919
Ratio: 2.997
Поблагодарили: 595
100%
Откуда: Великороссия
russia.gif
и где-то там, среди кипенно белых дезинфицируемых цехов, бродит "звезда" российского футбола Андрей Аршавин..
farcrys
Стаж: 13 лет 7 мес.
Сообщений: 126
Ratio: 7.862
100%
ага.. ))) и вздымает над головой вместо футбольного суперкубка супер большую пачку Лейс..))))
Топик был перенесен из форума Мега-Проекты в форум Архив Документалистики и TV

Причина переноса: Нет сида больше 3-х месяцев.

Исправил релиз - напиши ЛС svlesin, дав ссылку на релиз.
Если нет ответа 24 часа - нажми на кнопку "Обратить внимание модераторов".
Показать сообщения:   
Начать новую тему   Ответить на тему    Торрент-трекер NNM-Club -> Архив торрентов -> Архив Документалистики и TV Часовой пояс: GMT + 3
Страница 1 из 1