Классический форум-трекер
canvas not supported
Нас вместе: 4 231 876

NG: Суперсооружения: Мегазаводы. Мишлен / MegaStructures. Megafactories: Michelin (2011) HDTVRip [H.264/720p]


 
 
RSS
Начать новую тему   Ответить на тему    Торрент-трекер NNM-Club -> Архив торрентов -> Архив Документалистики и TV
Автор Сообщение
Blaidrg ®
Стаж: 12 лет 11 мес.
Сообщений: 167
Ratio: 83.161
Поблагодарили: 6990
100%
russia.gif
NG: Суперсооружения: Мегазаводы. Мишлен / MegaStructures. Megafactories: Michelin (2011) HDTVRip [H.264/720p]
Русское название: NG: Суперсооружения: Мегазаводы. Мишлен
Оригинальное название: MegaStructures. Megafactories: Michelin
Режиссер / Телекомпания: National Geographic Channel
Год выпуска: 2011
Жанр: Документальный

Описание:
Michelin (произносится Мишле́н) — французская компания, производитель шин. Полное наименование — Compagnie Générale des Établissements Michelin. Штаб-квартира — в Клермон-Ферране. По организационно-правовой форме является акционерной коммандитой. Компания выпускает широкий спектр шинной продукции для автомобильной, сельскохозяйственной техники, велосипедов и мотоциклов, а также самолётов. Также компания знаменита своими картами и путеводителями ViaMichelin. Компании принадлежит 69 заводов в 19 странах. Загляните внутрь одного из крупнейших шинных заводов, производящих шины для разных видов транспорта, от мотоциклов до космического шаттла.

Продолжительность: 00:44:59

Перевод: Одноголосый закадровый, профессиональный

Видеокодек: MPEG-4 AVC/H.264
Битрейт видео: ~25.00fps ~2131 kb/s
Размер кадра: 1280x720
Качество видео: HDTVRip [720p]
Аудиокодек: MP3 2.0
Битрейт аудио: 48000Hz stereo 192kbps
General
Unique ID : 197897671405823535433406508420950707343 (0x94E1B4834D1EE6C7A51012470C7CCC8F)
Complete name : National.Geographic.Megafactories\National.Geographic.HD.Megafactories.Michelin.2011.720p.HDTV.x264.mkv
Format : Matroska
Format version : Version 2
File size : 763 MiB
Duration : 44mn 59s
Overall bit rate : 2 370 Kbps
Encoded date : UTC 2012-07-17 06:15:30
Writing application : mkvmerge v5.2.0 ('I can't explain') built on Dec 18 2011 18:12:03
Writing library : libebml v1.2.3 + libmatroska v1.3.0
Video #1
ID : 1
Format : AVC
Format/Info : Advanced Video Codec
Format profile : High@L4.1
Format settings, CABAC : Yes
Format settings, ReFrames : 5 frames
Muxing mode : Header stripping
Codec ID : V_MPEG4/ISO/AVC
Duration : 44mn 59s
Bit rate : 2 131 Kbps
Width : 1 280 pixels
Height : 720 pixels
Display aspect ratio : 16:9
Frame rate : 25.000 fps
Color space : YUV
Chroma subsampling : 4:2:0
Bit depth : 8 bits
Scan type : Progressive
Bits/(Pixel*Frame) : 0.092
Stream size : 686 MiB (90%)
Writing library : x264 core 124 r2197 69a0443
Encoding settings : cabac=1 / ref=5 / deblock=1:0:0 / analyse=0x3:0x113 / me=umh / subme=8 / psy=1 / psy_rd=1.00:0.00 / mixed_ref=1 / me_range=16 / chroma_me=1 / trellis=1 / 8x8dct=1 / cqm=0 / deadzone=21,11 / fast_pskip=1 / chroma_qp_offset=-2 / threads=12 / sliced_threads=0 / nr=0 / decimate=1 / interlaced=0 / bluray_compat=0 / constrained_intra=0 / bframes=3 / b_pyramid=2 / b_adapt=2 / b_bias=0 / direct=3 / weightb=1 / open_gop=0 / weightp=2 / keyint=250 / keyint_min=25 / scenecut=40 / intra_refresh=0 / rc_lookahead=50 / rc=crf / mbtree=1 / crf=21.0 / qcomp=0.60 / qpmin=0 / qpmax=69 / qpstep=4 / ip_ratio=1.40 / aq=1:1.00
Language : English
Default : Yes
Forced : No
Audio #2
ID : 2
Format : MPEG Audio
Format version : Version 1
Format profile : Layer 3
Mode : Joint stereo
Mode extension : MS Stereo
Muxing mode : Header stripping
Codec ID : A_MPEG/L3
Codec ID/Hint : MP3
Duration : 44mn 59s
Bit rate mode : Constant
Bit rate : 192 Kbps
Channel(s) : 2 channels
Sampling rate : 48.0 KHz
Compression mode : Lossy
Stream size : 61.8 MiB (8%)
Writing library : LAME3.98.2ЄЄЄЄLTД
Language : Russian
Default : Yes
Forced : No

[National Geographic+Discovery+EXPLORER] Мегаструктуры / Суперсооружения / MegaStructures HD 720p

Скриншоты:


Время раздачи: 24/7 - круглосуточно до 10 скачавших
[NNM-Club.ru]_National.Geographic.HD.Megafactories.Michelin.2011.720p.HDTV.x264.mkv.torrent
 Торрент: Платиновая раздача  Зарегистрирован
 
Скачать


Примагнититься
 Зарегистрирован:   17 Июл 2012 09:30:47
 Размер:   763 MB  (
 Рейтинг:   4.8 (Голосов: 20)
 Поблагодарили:   66
 Проверка:   Оформление проверено модератором 17 Июл 2012 09:52:21
Как cкачать  ·  Как раздать  ·  Правильно оформить  ·  Поднять ратио!  
Топик был перенесен из форума Мега-Проекты в форум Архив Документалистики и TV

Причина переноса: Нет сида больше 30 дней....
svlesin
Показать сообщения:   
Начать новую тему   Ответить на тему    Торрент-трекер NNM-Club -> Архив торрентов -> Архив Документалистики и TV Часовой пояс: GMT + 3
Страница 1 из 1