Классический форум-трекер
canvas not supported
Нас вместе: 4 231 858

NG: Суперсооружения: Мегазаводы. Додж Челленджер / MegaStructures. Megafactories: Dodge Challenger (2010) HDTVRip [H.264/720p]


 
 
RSS
Начать новую тему   Ответить на тему    Торрент-трекер NNM-Club -> Зарубежные TV-бренды -> Мега-Проекты
Автор Сообщение
Blaidrg ®
Стаж: 12 лет 11 мес.
Сообщений: 167
Ratio: 83.16
Поблагодарили: 6990
100%
russia.gif
NG: Суперсооружения: Мегазаводы. Додж Челленджер / MegaStructures. Megafactories: Dodge Challenger (2010) HDTVRip [H.264/720p]
Русское название: NG: Суперсооружения: Мегазаводы. Додж Челленджер
Оригинальное название: MegaStructures. Megafactories: Dodge Challenger
Режиссер / Телекомпания: National Geographic Channel
Год выпуска: 2010
Жанр: Документальный

Описание:
"Dodge Challenger" — культовый автомобиль производства компании "Dodge", принадлежащей концерну "Chrysler Corporation". Был предназначен конкурировать с такими автомобилями, как "Chevrolet Camaro", "Ford Mustang", "Mercury Cougar" и "Pontiac Firebird".

Продолжительность: 00:44:46

Перевод: Одноголосый закадровый, профессиональный
Видеокодек: MPEG-4 AVC/H.264
Битрейт видео: ~25.00fps ~3610 kb/s
Размер кадра: 1280x720
Качество видео: HDTVRip [720p]
Аудиокодек: AC3 5.1
Битрейт аудио: 48000Hz stereo 448kbps
General
Unique ID : 221487386257520205714860447889268411711 (0xA6A0EB404A509B8BBBFAE12E769C0D3F)
Complete name : National.Geographic.Megafactories\National.Geographic.HD.Megafactories.Dodge.Challenger.(2010).720p.HDTV.x264.mkv
Format : Matroska
Format version : Version 2
File size : 1.29 GiB
Duration : 44mn 46s
Overall bit rate : 4 140 Kbps
Encoded date : UTC 2012-02-06 20:57:39
Writing application : mkvmerge v5.2.1 ('A Far Off Place') built on Jan 7 2012 21:56:27
Writing library : libebml v1.2.3 + libmatroska v1.3.0
Video #1
ID : 1
Format : AVC
Format/Info : Advanced Video Codec
Format profile : High@L4.0
Format settings, CABAC : Yes
Format settings, ReFrames : 6 frames
Codec ID : V_MPEG4/ISO/AVC
Duration : 44mn 46s
Bit rate : 3 610 Kbps
Width : 1 280 pixels
Height : 720 pixels
Display aspect ratio : 16:9
Frame rate : 25.000 fps
Color space : YUV
Chroma subsampling : 4:2:0
Bit depth : 8 bits
Scan type : Progressive
Bits/(Pixel*Frame) : 0.157
Stream size : 1.13 GiB (87%)
Writing library : x264 core 120 r2120 0c7dab9
Encoding settings : cabac=1 / ref=6 / deblock=1:-1:-1 / analyse=0x3:0x113 / me=umh / subme=7 / psy=1 / psy_rd=2.00:1.00 / mixed_ref=1 / me_range=32 / chroma_me=1 / trellis=2 / 8x8dct=1 / cqm=0 / deadzone=21,11 / fast_pskip=0 / chroma_qp_offset=-4 / threads=12 / sliced_threads=0 / nr=0 / decimate=1 / interlaced=0 / bluray_compat=0 / constrained_intra=0 / bframes=6 / b_pyramid=0 / b_adapt=2 / b_bias=0 / direct=3 / weightb=1 / open_gop=0 / weightp=2 / keyint=250 / keyint_min=25 / scenecut=40 / intra_refresh=0 / rc_lookahead=60 / rc=crf / mbtree=1 / crf=20.6 / qcomp=0.60 / qpmin=0 / qpmax=69 / qpstep=4 / ip_ratio=1.40 / aq=1:1.00
Default : Yes
Forced : No
Audio #2
ID : 2
Format : AC-3
Format/Info : Audio Coding 3
Mode extension : CM (complete main)
Codec ID : A_AC3
Duration : 44mn 46s
Bit rate mode : Constant
Bit rate : 448 Kbps
Channel(s) : 6 channels
Channel positions : Front: L C R, Side: L R, LFE
Sampling rate : 48.0 KHz
Bit depth : 16 bits
Compression mode : Lossy
Stream size : 143 MiB (11%)
Default : Yes
Forced : No

[National Geographic+Discovery+EXPLORER] Мегаструктуры / Суперсооружения / MegaStructures HD 720p

Скриншоты:


Время раздачи: 24/7 - круглосуточно до 10 скачавших
[NNM-Club.ru]_National.Geographic.HD.Megafactories.Dodge.Challenger.(2010).720p.HDTV.x264.mkv.torrent
 Торрент: Платиновая раздача  Зарегистрирован
 
Скачать


Примагнититься
 Зарегистрирован:   19 Июл 2012 22:51:37
 Размер:   1.29 GB  (
 Рейтинг:   4.9 (Голосов: 28)
 Поблагодарили:   79
 Проверка:   Оформление проверено модератором 20 Июл 2012 10:06:41
Как cкачать  ·  Как раздать  ·  Правильно оформить  ·  Поднять ратио!  
Показать сообщения:   
Начать новую тему   Ответить на тему    Торрент-трекер NNM-Club -> Зарубежные TV-бренды -> Мега-Проекты Часовой пояс: GMT + 3
Страница 1 из 1