Классический форум-трекер
canvas not supported
Нас вместе: 4 231 861

NG: Суперсооружения: Мегазаводы. Харлей-Дэвидсон V-Rod / MegaStructures. Megafactories: Harley-Davidson V-Rod (2008) HDTVRip [H.264/720p]


 
 
RSS
Начать новую тему   Ответить на тему    Торрент-трекер NNM-Club -> Зарубежные TV-бренды -> Мега-Проекты
Автор Сообщение
Blaidrg ®
Стаж: 12 лет 11 мес.
Сообщений: 167
Ratio: 83.16
Поблагодарили: 6990
100%
russia.gif
NG: Суперсооружения: Мегазаводы. Харлей-Дэвидсон V-Rod / MegaStructures. Megafactories: Harley-Davidson V-Rod (2008) HDTVRip [H.264/720p]
Русское название: NG: Суперсооружения: Мегазаводы. Харлей-Дэвидсон V-Rod
Оригинальное название: MegaStructures. Megafactories: Harley-Davidson V-Rod
Режиссер / Телекомпания: National Geographic Channel
Год выпуска: 2008
Жанр: Документальный

Описание:
Harley Davidson V-Rod – первая модель мотоцикла Harley Davidson, который способен развить скорость с нуля до 100 км/ч всего за 3,52 секунды – почти в два раза быстрей, чем любой другой «харлей».
Всё в модели V-Rod – от головокружительной скорости и двигателя, снабженного жидкостной системой охлаждения, до экстравагантной внешности, делает V-Rod самым продвинутым и совершенным Harley Davidson. Задача всех инженеров, рабочих и дизайнеров завода Harley Davidson в Канзас-Сити – найти баланс между дизайном и выдающимися техническими характеристиками, сохранить марку и стиль, присущие мотоциклам Harley Davidson, которые так важны ценителям марки. Роботы на сборочном конвейере совершают сложные пируэты вокруг будущего мотоцикла, достигая непревзойдённого совершенства линий обводов его кузова. На конвейерной линии, где собирают мощный двигатель V-Twin для модели V-Rod, установлены миниатюрные камеры, фиксирующие любое отклонение от заданных параметров. На территории завода также создано тюнинговое производство двух модификаций модели V-Rod: Screamin’ Eagle V-Rod и Screamin’ Eagle V-Rod Destroyer – самых скоростных из серийных драгстеров. С помощью фантастической компьютерной графики, уникальных кадров съёмок, интервью с рабочими сборочного цеха, серия «Мегазаводы: Харлей Дэвидсон» подробно рассказывает о том, как создавалась самая современная модель «Харлея».

Продолжительность: 00:47:29

Перевод: Одноголосый закадровый, профессиональный

Видеокодек: MPEG-4 AVC/H.264
Битрейт видео: ~25.00fps ~3680 kb/s
Размер кадра: 1280x720
Качество видео: HDTVRip [720p]
Аудиокодек: AC3 5.1
Битрейт аудио: 48000Hz stereo 448kbps
General
Unique ID : 188397327493818500853546235181002360063 (0x8DBC0164ED8A2654A14D7225522B84FF)
Complete name : National.Geographic.Megafactories\National.Geographic.HD.Megafactories.Harley.Davidson.V-Rod.(2008).720p.HDTV.x264.mkv
Format : Matroska
Format version : Version 2
File size : 1.40 GiB
Duration : 47mn 29s
Overall bit rate mode : Variable
Overall bit rate : 4 212 Kbps
Encoded date : UTC 2011-09-21 20:48:52
Writing application : mkvmerge v4.9.1 ('Ich will') сборка от Jul 11 2011 23:53:15
Writing library : libebml v1.2.1 + libmatroska v1.1.1
Video #1
ID : 1
Format : AVC
Format/Info : Advanced Video Codec
Format profile : High@L4.0
Format settings, CABAC : Yes
Format settings, ReFrames : 6 frames
Muxing mode : Header stripping
Codec ID : V_MPEG4/ISO/AVC
Duration : 47mn 29s
Bit rate mode : Variable
Bit rate : 3 680 Kbps
Maximum bit rate : 40.0 Mbps
Width : 1 280 pixels
Height : 720 pixels
Display aspect ratio : 16:9
Frame rate : 25.000 fps
Color space : YUV
Chroma subsampling : 4:2:0
Bit depth : 8 bits
Scan type : Progressive
Bits/(Pixel*Frame) : 0.160
Stream size : 1.22 GiB (87%)
Default : Yes
Forced : No
Audio #2
ID : 2
Format : AC-3
Format/Info : Audio Coding 3
Mode extension : CM (complete main)
Muxing mode : Header stripping
Codec ID : A_AC3
Duration : 47mn 29s
Bit rate mode : Constant
Bit rate : 448 Kbps
Channel(s) : 6 channels
Channel positions : Front: L C R, Side: L R, LFE
Sampling rate : 48.0 KHz
Bit depth : 16 bits
Compression mode : Lossy
Stream size : 152 MiB (11%)
Default : Yes
Forced : No

[National Geographic+Discovery+EXPLORER] Мегаструктуры / Суперсооружения / MegaStructures HD 720p

Скриншоты:


Время раздачи: 24/7 - круглосуточно до 10 скачавших
[NNM-Club.ru]_National.Geographic.HD.Megafactories.Harley.Davidson.V-Rod.(2008).720p.HDTV.x264.mkv.torrent
 Торрент: Платиновая раздача  Зарегистрирован
 
Скачать


Примагнититься
 Зарегистрирован:   19 Июл 2012 23:22:19
 Размер:   1.4 GB  (
 Рейтинг:   4.8 (Голосов: 19)
 Поблагодарили:   82
 Проверка:   Оформление проверено модератором 20 Июл 2012 10:07:22
Как cкачать  ·  Как раздать  ·  Правильно оформить  ·  Поднять ратио!  
Показать сообщения:   
Начать новую тему   Ответить на тему    Торрент-трекер NNM-Club -> Зарубежные TV-бренды -> Мега-Проекты Часовой пояс: GMT + 3
Страница 1 из 1