Классический форум-трекер
canvas not supported
Нас вместе: 4 231 858

NG: Суперсооружения: Мегазаводы. Хайнекен / MegaStructures. Megafactories: Heineken (2011) HDTVRip [H.264/720p]


 
 
RSS
Начать новую тему   Ответить на тему    Торрент-трекер NNM-Club -> Зарубежные TV-бренды -> Мега-Проекты
Автор Сообщение
Blaidrg ®
Стаж: 12 лет 11 мес.
Сообщений: 167
Ratio: 83.16
Поблагодарили: 6990
100%
russia.gif
NG: Суперсооружения: Мегазаводы. Хайнекен / MegaStructures. Megafactories: Heineken (2011) HDTVRip [H.264/720p]
Русское название: NG: Суперсооружения: Мегазаводы. Хайнекен
Оригинальное название: MegaStructures. Megafactories: Heineken
Режиссер / Телекомпания: National Geographic Channel
Год выпуска: 2011
Жанр: Документальный

Описание:
Это один из простейших напитков в мире, состоящий почти из одной воды с небольшим добавлением алкоголя, но за этим простым напитком кроется гигантский мегазавод, напичканный до отказа высокотехнологичным оборудованием, тысячами пивоваров и миллиардами литров пива. Побывайте на крупнейшем пивоваренном заводе в Европе, принадлежащем компании "Heineken", который находится в Зутервауде в Голландии.

Продолжительность: 00:45:04

Перевод: Одноголосый закадровый, профессиональный

Видеокодек: MPEG-4 AVC/H.264
Битрейт видео: ~25.00fps ~3610 kb/s
Размер кадра: 1280x720
Качество видео: HDTVRip [720p]
Аудиокодек: AC3 5.1
Битрейт аудио: 48000Hz stereo 448kbps
General
Unique ID : 228176505226754425787614369525287473260 (0xABA9324769DBD8CAAC44337F75A1D06C)
Complete name : National.Geographic.Megafactories\National.Geographic.HD.Megafactories.Heineken.(2011).720p.HDTV.x264.mkv
Format : Matroska
Format version : Version 2
File size : 1.30 GiB
Duration : 45mn 4s
Overall bit rate : 4 140 Kbps
Encoded date : UTC 2011-11-18 10:55:27
Writing application : mkvmerge v5.0.1 ('Es ist Sommer') built on Oct 30 2011 21:53:49
Writing library : libebml v1.2.2 + libmatroska v1.3.0
Video #1
ID : 1
Format : AVC
Format/Info : Advanced Video Codec
Format profile : High@L4.0
Format settings, CABAC : Yes
Format settings, ReFrames : 6 frames
Codec ID : V_MPEG4/ISO/AVC
Duration : 45mn 4s
Bit rate : 3 610 Kbps
Width : 1 280 pixels
Height : 720 pixels
Display aspect ratio : 16:9
Frame rate : 25.000 fps
Color space : YUV
Chroma subsampling : 4:2:0
Bit depth : 8 bits
Scan type : Progressive
Bits/(Pixel*Frame) : 0.157
Stream size : 1.14 GiB (87%)
Writing library : x264 core 119 r2106 07efeb4
Encoding settings : cabac=1 / ref=6 / deblock=1:-1:-1 / analyse=0x3:0x113 / me=umh / subme=7 / psy=1 / psy_rd=2.00:1.00 / mixed_ref=1 / me_range=32 / chroma_me=1 / trellis=2 / 8x8dct=1 / cqm=0 / deadzone=21,11 / fast_pskip=0 / chroma_qp_offset=-4 / threads=12 / sliced_threads=0 / nr=0 / decimate=1 / interlaced=0 / bluray_compat=0 / constrained_intra=0 / bframes=6 / b_pyramid=0 / b_adapt=2 / b_bias=0 / direct=3 / weightb=1 / open_gop=0 / weightp=2 / keyint=250 / keyint_min=25 / scenecut=40 / intra_refresh=0 / rc_lookahead=60 / rc=crf / mbtree=1 / crf=22.0 / qcomp=0.60 / qpmin=0 / qpmax=69 / qpstep=4 / ip_ratio=1.40 / aq=1:1.00
Default : Yes
Forced : No
Audio #2
ID : 2
Format : AC-3
Format/Info : Audio Coding 3
Mode extension : CM (complete main)
Codec ID : A_AC3
Duration : 45mn 4s
Bit rate mode : Constant
Bit rate : 448 Kbps
Channel(s) : 6 channels
Channel positions : Front: L C R, Side: L R, LFE
Sampling rate : 48.0 KHz
Bit depth : 16 bits
Compression mode : Lossy
Stream size : 144 MiB (11%)
Default : Yes
Forced : No

[National Geographic+Discovery+EXPLORER] Мегаструктуры / Суперсооружения / MegaStructures HD 720p

Скриншоты:


Время раздачи: 24/7 - круглосуточно до 10 скачавших
[NNM-Club.ru]_National.Geographic.HD.Megafactories.Heineken.(2011).720p.HDTV.x264.mkv.torrent
 Торрент: Золотая раздача  Зарегистрирован
 
Зарегистрируйтесь и скачайте торрент!
13.3 KB

Примагнититься
 Зарегистрирован:   19 Июл 2012 23:31:28
 Размер:   1.3 GB  (
 Рейтинг:   4.6 (Голосов: 22)
 Поблагодарили:   77
 Проверка:   Оформление проверено модератором 20 Июл 2012 10:07:29
Как cкачать  ·  Как раздать  ·  Правильно оформить  ·  Поднять ратио!  
Показать сообщения:   
Начать новую тему   Ответить на тему    Торрент-трекер NNM-Club -> Зарубежные TV-бренды -> Мега-Проекты Часовой пояс: GMT + 3
Страница 1 из 1