Классический форум-трекер
canvas not supported
Нас вместе: 4 205 896

Sergei Prokofiev - The complete piano sonatas 1 (1991) [FLAC|Lossless]<classical>


 
 
RSS
Начать новую тему   Ответить на тему    Торрент-трекер NNM-Club -> Классика -> Фортепиано (Lossless)
Автор Сообщение
Анна Ливия Плюрабель ®
Стаж: 10 лет 7 мес.
Сообщений: 35
Ratio: 19.21
Поблагодарили: 720
100%
Sergei Prokofiev - The complete piano sonatas 1 (1991)
Год: 1991
Жанр: classical
Продолжительность: 01:16:20

Кодек: FLAC
Битрейт: Lossless
Тип битрейта: VBR

Трек лист:
1. Piano Sonata No.1 in F minor, op.1 (in one movement)
2. Piano Sonata No.2 in D minor, op.14 - I. Allegro ma non troppo
3. Piano Sonata No.2 in D minor, op.14 - II. Scherzo
4. Piano Sonata No.2 in D minor, op.14 - III. Andante
5. Piano Sonata No.2 in D minor, op.14 - IV. Vivace
6. Piano Sonata No.3 in A minor, op.28, ''d' apres des vieux cahiers''
7. Piano Sonatina in E minor, op.54 No.1 - I. Allegro moderato
8. Piano Sonatina in E minor, op.54 No.1 - II.Adagietto
9. Piano Sonatina in E minor, op.54 No.1 - III. Allegretto
10. Piano Sonatina in G, op.54 No.2 - I. Allegro sostenuto
11. Piano Sonatina in G, op.54 No.2 - II. Andante amabile
12. Piano Sonatina in G, op.54 No.2 - III. Allegro, ma non troppo
13. Visions Fugitives, op.22 – Lentamente
14. Visions Fugitives, op.22 – Andante
15. Visions Fugitives, op.22 – Allegretto
16. Visions Fugitives, op.22 – Animato
17. Visions Fugitives, op.22 - Molto giocoso
18. Visions Fugitives, op.22 - Con eleganza
19. Visions Fugitives, op.22 – Pittoresco
20. Visions Fugitives, op.22 – Commodo
21. Visions Fugitives, op.22 - Allegretto tranquillo
22. Visions Fugitives, op.22 – Ridicolosamente
23. Visions Fugitives, op.22 - Con vivacita
24. Visions Fugitives, op.22 - Assai moderato
25. Visions Fugitives, op.22 – Allegretto
26. Visions Fugitives, op.22 – Feroce
27. Visions Fugitives, op.22 – Inquieto
28. Visions Fugitives, op.22 – Dolente
29. Visions Fugitives, op.22 – Poetico
30. Visions Fugitives, op.22 - Con una dolce lentezza
31. Visions Fugitives, op.22 - Presto agitatissimo e molto accentuate
32. Visions Fugitives, op.22 - Lento irrealmente
Код:

Exact Audio Copy V0.99 prebeta 5 from 4. May 2009

Отчёт EAC об извлечении, выполненном 20. июля 2012, 19:32

John Lill (piano) / Prokofiev - Piano Sonata No.1, op.1 - No.2, op.14 - No.3, op.28 - Sonatinas, op.54 - Visions Fugitives, op.22 - Lill

Дисковод: Optiarc DVD RW AD-5280S   Adapter: 1  ID: 0

Режим чтения                 : Достоверность
Использование точного потока : Да
Отключение кэша аудио        : Да
Использование указателей C2  : Нет

Коррекция смещения при чтении                     : 48
Способность читать области Lead-in и Lead-out     : Нет
Заполнение пропущенных сэмплов тишиной            : Да
Удаление блоков с тишиной в начале и конце        : Нет
При вычислениях CRC использовались нулевые сэмплы : Нет
Интерфейс                                         : Встроенный Win32-интерфейс для Win NT/2000

Выходной формат          : Пользовательский кодировщик
Выбранный битрейт        : 768 kBit/s
Качество                 : Высокий
Добавление ID3-тэга      : Нет
Утилита сжатия           : C:\Program Files\Exact Audio Copy\FLAC\FLAC.EXE
Дополнительные параметры : -8 -V -T "ARTIST=%a" -T "TITLE=%t" -T "ALBUM=%g" -T "DATE=%y" -T "TRACKNUMBER=%n" -T "GENRE=%m" -T "COMMENT=%e" %s -o %d

TOC извлечённого CD

     Трек |   Старт  | Длительность | Начальный сектор | Конечный сектор
    ---------------------------------------------------------------------
       1  |  0:00.00 |    7:02.24   |           0      |      31673
       2  |  7:02.24 |    5:57.50   |       31674      |      58498
       3  | 12:59.74 |    2:07.42   |       58499      |      68065
       4  | 15:07.41 |    5:21.53   |       68066      |      92193
       5  | 20:29.19 |    4:54.20   |       92194      |     114263
       6  | 25:23.39 |    8:00.22   |      114264      |     150285
       7  | 33:23.61 |    3:18.63   |      150286      |     165198
       8  | 36:42.49 |    3:32.22   |      165199      |     181120
       9  | 40:14.71 |    3:04.03   |      181121      |     194923
      10  | 43:18.74 |    3:11.42   |      194924      |     209290
      11  | 46:30.41 |    2:48.53   |      209291      |     221943
      12  | 49:19.19 |    3:32.27   |      221944      |     237870
      13  | 52:51.46 |    1:27.28   |      237871      |     244423
      14  | 54:18.74 |    1:24.25   |      244424      |     250748
      15  | 55:43.24 |    1:00.60   |      250749      |     255308
      16  | 56:44.09 |    0:50.37   |      255309      |     259095
      17  | 57:34.46 |    0:26.18   |      259096      |     261063
      18  | 58:00.64 |    0:31.60   |      261064      |     263448
      19  | 58:32.49 |    2:10.05   |      263449      |     273203
      20  | 60:42.54 |    1:08.50   |      273204      |     278353
      21  | 61:51.29 |    1:11.05   |      278354      |     283683
      22  | 63:02.34 |    1:00.35   |      283684      |     288218
      23  | 64:02.69 |    1:00.17   |      288219      |     292735
      24  | 65:03.11 |    1:05.33   |      292736      |     297643
      25  | 66:08.44 |    0:44.57   |      297644      |     301000
      26  | 66:53.26 |    1:02.13   |      301001      |     305663
      27  | 67:55.39 |    0:58.05   |      305664      |     310018
      28  | 68:53.44 |    2:05.10   |      310019      |     319403
      29  | 70:58.54 |    1:10.60   |      319404      |     324713
      30  | 72:09.39 |    1:10.57   |      324714      |     330020
      31  | 73:20.21 |    0:44.10   |      330021      |     333330
      32  | 74:04.31 |    2:14.62   |      333331      |     343442

Характеристики диапазона извлечения и сообщения об ошибках

Выбранный диапазон

     Имя файла C:\Users\Герман\Downloads\Sergei Prokofiev - The complete piano sonatas 1\John Lill (piano) - Prokofiev - Piano Sonata No.1, op.1 - No.2, op.14 - No.3, op.28 - Sonatinas, op.54 - Visions Fugitives, op.22 - Lill.wav

     Пиковый уровень 100.0 %
     Качество диапазона 100.0 %
     CRC теста B2462119
     CRC копии B2462119
     Копирование... OK

Ошибок не произошло

Конец отчёта
Код:

-----------------------

DON'T MODIFY THIS FILE

-----------------------

PERFORMER: auCDtect Task Manager, ver. 1.5.1RC6 build 1.5.1.7
Copyright (c) 2008-2010 y-soft. All rights reserved
http://y-soft.org

ANALYZER: auCDtect: CD records authenticity detector, version 0.8.2
Copyright (c) 2004 Oleg Berngardt. All rights reserved.
Copyright (c) 2004 Alexander Djourik. All rights reserved.

FILE: John Lill (piano) - Prokofiev - Piano Sonata No.1, op.1 - No.2, op.14 - No.3, op.28 - Sonatinas, op.54 - Visions Fugitives, op.22 - Lill.flac
  Size: 235980958 Hash: C1BE6EB7F4C581D1BF646C91EB8FEC6F Accuracy: -m0
  Conclusion: MPEG 99%
  Signature: 4EB833372B055B2B7197627D27902C4B8D39F4AC
[NNM-Club.ru]_Sergei Prokofiev - The complete piano sonatas 1.torrent
 Торрент: Платиновая раздача  Зарегистрирован
 
Скачать


Примагнититься
 Зарегистрирован:   20 Июл 2012 19:42:01
 Размер:   226 MB  (
 Рейтинг:   4.7 (Голосов: 10)
 Поблагодарили:   43
 Проверка:   Оформление проверено модератором 23 Июл 2012 01:22:14
Как cкачать  ·  Как раздать  ·  Правильно оформить  ·  Поднять ратио!  
Показать сообщения:   
Начать новую тему   Ответить на тему    Торрент-трекер NNM-Club -> Классика -> Фортепиано (Lossless) Часовой пояс: GMT + 3
Страница 1 из 1