Классический форум-трекер
canvas not supported
Нас вместе: 4 205 953

Sergei Prokofiev - The complete piano sonatas 2 (1991) [FLAC|Lossless]<classical>


 
 
RSS
Начать новую тему   Ответить на тему    Торрент-трекер NNM-Club -> Классика -> Фортепиано (Lossless)
Автор Сообщение
Анна Ливия Плюрабель ®
Стаж: 10 лет 7 мес.
Сообщений: 35
Ratio: 19.21
Поблагодарили: 720
100%
Sergei Prokofiev - The complete piano sonatas 2 (1991)
Год: 1991
Жанр: classical
Продолжительность: 01:08:10

Кодек: FLAC
Битрейт: Lossless
Тип битрейта: VBR

Трек лист:
1. Sonata No. 4 in D minor, Op. 29: Allegro molto sostenuto
2. Sonata No. 4 in D minor, Op. 29: Andante assai
3. Sonata No. 4 in D minor, Op. 29: Allegro con brio, ma non leggiere
4. Sonata No. 5 in C major, Op. 38: Allegro tranquillo
5. Sonata No. 5 in C major, Op. 38: Andantino
6. Sonata No. 5 in C major, Op. 38: Un poco allegretto
7. Sonata No. 6 in A major, Op. 82: Allegro moderato
8. Sonata No. 6 in A major, Op. 82: Allegretto
9. Sonata No. 6 in A major, Op. 82: Tempo de valzer lentissimo
10. Sonata No. 6 in A major, Op. 82: Vivace
11. Pastoral Sonatina in C major, Op. 59, No. 3
Код:

Exact Audio Copy V0.99 prebeta 5 from 4. May 2009

Отчёт EAC об извлечении, выполненном 24. июля 2012, 20:48

Sergey Prokofiev / Piano Sonatas Vol. 2

Дисковод: Optiarc DVD RW AD-5280S   Adapter: 1  ID: 0

Режим чтения                 : Достоверность
Использование точного потока : Да
Отключение кэша аудио        : Да
Использование указателей C2  : Нет

Коррекция смещения при чтении                     : 48
Способность читать области Lead-in и Lead-out     : Нет
Заполнение пропущенных сэмплов тишиной            : Да
Удаление блоков с тишиной в начале и конце        : Нет
При вычислениях CRC использовались нулевые сэмплы : Нет
Интерфейс                                         : Встроенный Win32-интерфейс для Win NT/2000

Выходной формат          : Пользовательский кодировщик
Выбранный битрейт        : 768 kBit/s
Качество                 : Высокий
Добавление ID3-тэга      : Нет
Утилита сжатия           : C:\Program Files\Exact Audio Copy\FLAC\FLAC.EXE
Дополнительные параметры : -8 -V -T "ARTIST=%a" -T "TITLE=%t" -T "ALBUM=%g" -T "DATE=%y" -T "TRACKNUMBER=%n" -T "GENRE=%m" -T "COMMENT=%e" %s -o %d

TOC извлечённого CD

     Трек |   Старт  | Длительность | Начальный сектор | Конечный сектор
    ---------------------------------------------------------------------
       1  |  0:00.00 |    5:38.67   |           0      |      25416
       2  |  5:38.67 |    8:10.10   |       25417      |      62176
       3  | 13:49.02 |    4:07.33   |       62177      |      80734
       4  | 17:56.35 |    6:35.30   |       80735      |     110389
       5  | 24:31.65 |    4:10.42   |      110390      |     129181
       6  | 28:42.32 |    6:31.05   |      129182      |     158511
       7  | 35:13.37 |    8:41.43   |      158512      |     197629
       8  | 43:55.05 |    4:53.50   |      197630      |     219654
       9  | 48:48.55 |    7:18.47   |      219655      |     252551
      10  | 56:07.27 |    7:17.08   |      252552      |     285334
      11  | 63:24.35 |    4:45.55   |      285335      |     306764

Характеристики диапазона извлечения и сообщения об ошибках

Выбранный диапазон

     Имя файла C:\Users\Герман\Downloads\Sergei Prokofiev - The complete piano sonatas 2\Sergey Prokofiev - Piano Sonatas Vol. 2.wav

     Пиковый уровень 100.0 %
     Качество диапазона 100.0 %
     CRC теста 562E76C5
     CRC копии 562E76C5
     Копирование... OK

Ошибок не произошло

Конец отчёта
Код:

-----------------------

DON'T MODIFY THIS FILE

-----------------------

PERFORMER: auCDtect Task Manager, ver. 1.5.1RC6 build 1.5.1.7
Copyright (c) 2008-2010 y-soft. All rights reserved
http://y-soft.org

ANALYZER: auCDtect: CD records authenticity detector, version 0.8.2
Copyright (c) 2004 Oleg Berngardt. All rights reserved.
Copyright (c) 2004 Alexander Djourik. All rights reserved.

FILE: Sergey Prokofiev - Piano Sonatas Vol. 2.flac
  Size: 223510017 Hash: 8231516AC618D8B7D9853F27965B2500 Accuracy: -m0
  Conclusion: MPEG 99%
  Signature: 320FCB98D347B3C8532015E5BEFA3F82340F99A9
Время раздачи: с 19:00 до 23:00
[NNM-Club.ru]_Sergei Prokofiev - The complete piano sonatas 2.torrent
 Торрент: Платиновая раздача  Зарегистрирован
 
Скачать


Примагнититься
 Зарегистрирован:   24 Июл 2012 20:12:39
 Размер:   214 MB  (
 Рейтинг:    (Голосов: 7)
 Поблагодарили:   33
 Проверка:   Оформление проверено модератором 26 Июл 2012 04:14:11
Как cкачать  ·  Как раздать  ·  Правильно оформить  ·  Поднять ратио!  
Показать сообщения:   
Начать новую тему   Ответить на тему    Торрент-трекер NNM-Club -> Классика -> Фортепиано (Lossless) Часовой пояс: GMT + 3
Страница 1 из 1