Классический форум-трекер
canvas not supported
Нас вместе: 4 231 858

NG: Суперсооружения: Лондонский Олимпийский стадион / MegaStructures. London's Olimpic Stadium (2011) SATRip


 
 
RSS
Начать новую тему   Ответить на тему    Торрент-трекер NNM-Club -> Архив торрентов -> Архив Документалистики и TV
Автор Сообщение
skorpionN ®
Документалист
Стаж: 16 лет 7 мес.
Сообщений: 9497
Ratio: 2534.096
Раздал: 22.35 TB
Поблагодарили: 368450
100%
NG: Суперсооружения: Лондонский Олимпийский стадион / MegaStructures. London's Olimpic Stadium (2011) SATRip
Русское название: NG: Суперсооружения: Лондонский Олимпийский стадион
Оригинальное название: MegaStructures. London's Olimpic Stadium
Режиссер / Телекомпания: National Geographic
Год выпуска: 2011
Жанр: Документальный

Описание:
Вместимость Олимпийского комплекса в Лондоне, получившего название "стадион-конструктор", после Игр можно будет сократить с 80000 до 25000 мест.

Продолжительность: 00:45:00

Перевод: Одноголосый закадровый, профессиональный

Видеокодек: DivX 4/5/6
Битрейт видео: ~25.00fps 1500kbps
Размер кадра: 704x400
Качество видео: SATRip
Аудиокодек: MP3
Битрейт аудио: 48000Hz stereo 128kbps
Формат : AVI
Формат/Информация : Audio Video Interleave
Размер файла : 530 Мбайт
Продолжительность : 45 м.
Общий поток : 1646 Кбит/сек

Видео
Идентификатор : 0
Формат : MPEG-4 Visual
Профиль формата : Simple@L3
Параметр BVOP формата : Нет
Параметр QPel формата : Нет
Параметр GMC формата : Без точки перехода
Параметр матрицы формата : Default (H.263)
Идентификатор кодека : DX50
Идентификатор кодека/Подсказка : DivX 5
Продолжительность : 45 м.
Битрейт : 1500 Кбит/сек
Ширина : 704 пикселя
Высота : 400 пикселей
Соотношение сторон : 16:9
Частота кадров : 25,000 кадров/сек
Цветовое пространство : YUV
Субдискретизация насыщенности : 4:2:0
Битовая глубина : 8 бит
Тип развёртки : Прогрессивная
Метод сжатия : С потерями
Бит/(Пиксели*Кадры) : 0.213
Размер потока : 483 Мбайт (91%)
Библиотека кодирования : XviD 1.2.1 (UTC 2008-12-04)

Аудио
Идентификатор : 1
Формат : MPEG Audio
Версия формата : Version 1
Профиль формата : Layer 3
Режим : Joint stereo
Расширение режима : MS Stereo
Идентификатор кодека : 55
Идентификатор кодека/Подсказка : MP3
Продолжительность : 45 м.
Вид битрейта : Постоянный
Битрейт : 128 Кбит/сек
Каналы : 2 канала
Частота : 48,0 КГц
Метод сжатия : С потерями
Размер потока : 41,2 Мбайт (8%)
Выравнивание : Соединение по промежуткам
Продолжительность промежутка : 24 мс. (0,60 видеокадр)
Библиотека кодирования : LAME3.98.2
Список релизов из цикла передач "Суперсооружения / MegaStructures" :

Скриншоты:




Время раздачи: 24/7 ( до первых скачавших, перебои со связью бывают,зависит от провайдера)
[NNM-Club.ru]_Megafactory_Londons_Olimpic_Stadium.avi.torrent
 Торрент: Платиновая раздача  Зарегистрирован
 
Скачать


Примагнититься
 Зарегистрирован:   27 Июл 2012 18:49:37
 Размер:   530 MB  (
 Рейтинг:   4.8 (Голосов: 29)
 Поблагодарили:   74
 Проверка:   Оформление проверено модератором 27 Июл 2012 18:50:06
Как cкачать  ·  Как раздать  ·  Правильно оформить  ·  Поднять ратио!  
Топик был перенесен из форума Мега-Проекты в форум Архив Документалистики и TV

Причина переноса: Нет сида больше 3-х месяцев.

Исправил релиз - напиши ЛС svlesin, дав ссылку на релиз.
Если нет ответа 24 часа - нажми на кнопку "Обратить внимание модераторов".
Показать сообщения:   
Начать новую тему   Ответить на тему    Торрент-трекер NNM-Club -> Архив торрентов -> Архив Документалистики и TV Часовой пояс: GMT + 3
Страница 1 из 1