Классический форум-трекер
canvas not supported
Нас вместе: 4 233 718

Эквилибриум / Equilibrium (2002) HDRip


 
 
RSS
Начать новую тему   Ответить на тему    Торрент-трекер NNM-Club -> Зарубежное кино -> Зарубежные Фильмы (SD)
Автор Сообщение
Alex_shadow ®
Стаж: 13 лет 4 мес.
Сообщений: 1101
Ratio: 10.898
Поблагодарили: 24813
100%
nnm-club.gif
Эквилибриум / Equilibrium (2002) HDRip
«The only thing more powerful than the system, is the man that will overthrow it.»
Русское название: Эквилибриум
Оригинальное название: Equilibrium
Год выпуска: 2002
Страна: США
Жанр: фантастика, боевик, триллер, драма
Режиссер: Курт Уиммер
Актеры: Кристиан Бэйл, Тэй Диггз, Энгус МакФадьен, Шон Бин, Эмили Уотсон, Уильям Фихтнер, Мэттью Харбор, Эмили Сьеверт, Шон Пертуи, Доминик Пурселл.
Роли дублировали: Андрей Градов, Денис Беспалый, Олег Куценко, Александр Рахленко, Лариса Некипелова.
Описание фильма: Действие происходит в будущем, когда люди лишены возможности выражать какие-то эмоции, потому, что они… запрещены. Это — та цена, которую человечество платит за устранение из своей жизни войны. Теперь книги, искусство и музыка находятся вне закона. А любое чувство — уже преступление, наказуемое смертью.

Для проведения в жизнь существующего правила используется принудительное применение лекарства «прозиум». Правительственный агент Джон Престон борется с теми, кто нарушает правила. В один прекрасный момент он забывает принять очередную дозу лекарства и с ним происходит духовное превращение, что приводит его к противоречию с самим собой и с начальством.


Продолжительность: 01:47:02
Перевод: Профессиональный (полное дублирование) – "МОСФИЛЬМ-мастер".

Видеокодек: XviD
Битрейт видео: ~835 Кбит/с
Размер кадра: 688x288
Качество видео: HDRip
Аудиокодек: МР3 2.0
Битрейт аудио: 128 Кбит/с
Рейтинг PG - Рекомендуется присутствие родителей
Формат : AVI
Формат/Информация : Audio Video Interleave
Размер файла : 744 Мбайт
Продолжительность : 1 ч. 47 м.
Общий поток : 972 Кбит/сек
Программа кодирования : VirtualDubMod 1.5.10.2 (build 2540/release)
Библиотека кодирования : VirtualDubMod build 2540/release

Видео
Идентификатор : 0
Формат : MPEG-4 Visual
Профиль формата : Advanced Simple@L5
Параметр BVOP формата : 1
Параметр QPel формата : Нет
Параметр GMC формата : Без точки перехода
Параметр матрицы формата : Выборочная
Идентификатор кодека : XVID
Идентификатор кодека/Подсказка : XviD
Продолжительность : 1 ч. 47 м.
Битрейт : 835 Кбит/сек
Ширина : 688 пикселей
Высота : 288 пикселей
Соотношение сторон : 2,40:1
Частота кадров : 23,976 кадра/сек
Цветовое пространство : YUV
Субдискретизация насыщенности : 4:2:0
Битовая глубина : 8 бит
Тип развёртки : Прогрессивная
Метод сжатия : С потерями
Бит/(Пиксели*Кадры) : 0.176
Размер потока : 639 Мбайт (86%)
Библиотека кодирования : XviD 1.2.1 (UTC 2008-12-04)

Аудио
Идентификатор : 1
Формат : MPEG Audio
Версия формата : Version 1
Профиль формата : Layer 3
Идентификатор кодека : 55
Идентификатор кодека/Подсказка : MP3
Продолжительность : 1 ч. 47 м.
Вид битрейта : Постоянный
Битрейт : 128 Кбит/сек
Каналы : 2 канала
Частота : 48,0 КГц
Метод сжатия : С потерями
Размер потока : 98,0 Мбайт (13%)
Выравнивание : Соединение по промежуткам
Продолжительность промежутка : 42 мс. (1,00 видеокадр)
Время предзагрузки промежутка : 504 мс.
Библиотека кодирования : LAME3.97
Настройки программы : -m s -V 4 -q 2 -lowpass 17 -b 128

  1. Около двухсот человек прошли пробы на роль Патриджа, и только, когда начались съемки, Лукас Фостер сумел убедить Шона Бина принять участие в фильме.
  2. Удивительно, но сцена пистолетной перестрелки Джона Престона с офицерами заняла всего 30 минут съемочного времени.
  3. Костюм Джона Престона был позаимствован из фильма с участием Брюса Ли «Кулак ярости».
    Пистолеты, используемые клериками, носят название Beretta M93R. Точно такой же пистолет в свое время был использован на съемках «Робота-полицейского».
  4. Дотошными статистиками в картине насчитано 236 трупов.
  5. Престон добирается до жилища Виктории и обнаруживает там несметное количество грампластинок. Одну из них он решает прослушать. В фильме звучит фрагмент девятой симфонии Людвига Ван Бетховена.
  6. В эпизоде с собакой был использован щенок бернского зенненхунда. Любопытно, что собачьи звуки, которые мы можем услышать в этом эпизоде (тявканье, учащенное дыхание, поскуливание) на самом деле издавал специально обученный актер-пародист.
  7. При активном участии Курта Уиммера, режиссера и сценариста проекта, были внесены новые элементы в искусство единоборств. Никто ранее еще не снимал поединок на пистолетах в таком ракурсе.
  8. Наркотик, используемый в фильме для отключения чувств, носит название «Прозиум». Это своеобразная комбинация двух препаратов «Прозак» и «Валиум», каждый из которых служит в повседневной жизни для снятия стресса.
  9. Концепт-арт Либрии был навеян работами художника Хью Ферриса.
  10. Партридж читает стихи Йетса.
  11. Тетраграмматон — слово, использующееся в иудаизме как имя Бога.
    Первоначально препарат Прозиум назывался «либриум» (с намеком на Либрию), но выяснилось, что это реально зарегистрированная торговая марка.
  12. Во время конфискации картин камера выхватывает полотно с юной девушкой – это «Книга историй» Адольфа-Уильяма Богеро.
  13. Курт Уиммер хотел, чтобы Престона сыграл Доминик Пурселл. Однако продюсеры не желали видеть в главной роли малоизвестного австралийского актера. Чтобы совсем не обижать Пурселла, ему дали небольшую роль в начале фильма.
  14. В фильме показан глобус, расположение материков на котором сильно отличается от нашего мира.
Скриншоты:





Время раздачи: С 9:00 до 18:00 (Пн-Пт) по Московскому времени.

Скорость отдачи: 1 Мбит/c. Так что большой скорости не обещаю.

Ekvilibrium_HDRip_[nnm-club.ru].avi.torrent
 Торрент: Платиновая раздача  Зарегистрирован
 
Скачать


Примагнититься
 Зарегистрирован:   03 Авг 2012 08:57:33
 Размер:   744 MB  (
 Рейтинг:   4.9 (Голосов: 97)
 Поблагодарили:   231
 Проверка:   Оформление проверено модератором 03 Авг 2012 09:19:22
Как cкачать  ·  Как раздать  ·  Правильно оформить  ·  Поднять ратио!  
Shinryu_Ray
Стаж: 11 лет 9 мес.
Сообщений: 2
Ratio: 2.48
34.48%
Пересматриваю раз в N-e количество лет)
Спасибо за дублированную версию, когда про-озвучка, восприятие фильма совсем другое.
Показать сообщения:   
Начать новую тему   Ответить на тему    Торрент-трекер NNM-Club -> Зарубежное кино -> Зарубежные Фильмы (SD) Часовой пояс: GMT + 3
Страница 1 из 1