Классический форум-трекер
canvas not supported
Нас вместе: 4 232 379

Счастливы вместе (6 сезон, 25 серия из 50) (2012) SATRip


 
 
RSS
Начать новую тему   Ответить на тему    Торрент-трекер NNM-Club -> Архив торрентов -> Архив Сериалов и Архив Старого многосерийного кино до 90-х
Автор Сообщение
ZoNoW ®
Модератор Видео
Стаж: 12 лет 11 мес.
Сообщений: 8454
Ratio: 699K
Раздал: 84.2 TB
Поблагодарили: 4010370
100%
ussr.gif
Счастливы вместе (6 сезон, 25 серия из 50) (2012) SATRip
Русское название: Счастливы вместе
Год выпуска: 2012
Выпущено: Россия, Телекомпания ТНТ
Жанр: Комедия, Семейный



Режиссер: Георгий Дронов, Шабан Муслимов, Иван Китаев
Актеры: Виктор Логинов, Наталья Бочкарева, Дарья Сагалова, Александр Якин, Татьяна Уфимцева, Павел Савинков, Алексей Секирин, Юлия Захарова

Описание фильма:
Новый сезон “Счастливы вместе”

Ситком «Счастливы вместе» уже долгое время удерживает высочайшие рейтинги. Благодаря такой зрительской любви впервые за всю историю мирового проката сериала создатели разрешили сценаристам ТНТ дописать еще 100 эпизодов, которых нет в оригинальном американском сценарии. В новых сериях ожидается множество звезд в непривычных для них ролях, неожиданные и фантастические повороты сюжета и много житейского юмора – покой Букиным только снится.

Продолжительность: 00:23:00 серия
Качество видео: SATRip

Видеокодек: DivX 5
Битрейт видео: 1653 kbps
Размер кадра: 720х400
Аудиокодек: MP3, 2 ch
Битрейт аудио: 128 kbps
Код:
Общее
Полное имя                               : D:\Schastlivi.Vmeste.25.seriya.2012.SATRip.avi
Формат                                   : AVI
Формат/Информация                        : Audio Video Interleave
Размер файла                             : 288 Мбайт
Продолжительность                        : 22 м.
Общий поток                              : 1791 Кбит/сек
Библиотека кодирования                   : VirtualDub build 29808/release

Видео
Идентификатор                            : 0
Формат                                   : MPEG-4 Visual
Параметр BVOP формата                    : 1
Параметр QPel формата                    : Нет
Параметр GMC формата                     : Без точки перехода
Параметр матрицы формата                 : Default (H.263)
Режим смешивания                         : Сжатый битовый поток
Идентификатор кодека                     : DX50
Идентификатор кодека/Подсказка           : DivX 5
Продолжительность                        : 22 м.
Битрейт                                  : 1653 Кбит/сек
Ширина                                   : 720 пикселей
Высота                                   : 400 пикселей
Соотношение сторон                       : 16:9
Частота кадров                           : 25,000 кадров/сек
Цветовое пространство                    : YUV
Субдискретизация насыщенности            : 4:2:0
Битовая глубина                          : 8 бит
Тип развёртки                            : Прогрессивная
Метод сжатия                             : С потерями
Бит/(Пиксели*Кадры)                      : 0.230
Размер потока                            : 266 Мбайт (92%)
Библиотека кодирования                   : DivX 6.8.5 (UTC 2009-08-20)

Аудио
Идентификатор                            : 1
Формат                                   : MPEG Audio
Версия формата                           : Version 1
Профиль формата                          : Layer 3
Режим                                    : Joint stereo
Расширение режима                        : MS Stereo
Идентификатор кодека                     : 55
Идентификатор кодека/Подсказка           : MP3
Продолжительность                        : 22 м.
Вид битрейта                             : Постоянный
Битрейт                                  : 128 Кбит/сек
Каналы                                   : 2 канала
Частота                                  : 44,1 КГц
Метод сжатия                             : С потерями
Задержка видео                           : 25 мс.
Размер потока                            : 20,6 Мбайт (7%)
Выравнивание                             : Разделение по промежуткам
Продолжительность промежутка             : 40  мс. (1,00 видеокадр)
Время предзагрузки промежутка            : 500  мс.


Скриншоты:


Приятного просмотра
и не забываем говорить СПАСИБО...

Все части сериала на NNM-Club

Время раздачи: 24/7,
до 5 скачавших.
[NNM-Club.ru]_Schastlivi.Vmeste.25.seriya.2012.SATRip.avi.torrent
 Торрент: Золотая раздача  Зарегистрирован
 
Зарегистрируйтесь и скачайте торрент!
11.5 KB

 Зарегистрирован:   20 Авг 2012 13:17:18
 Размер:   288 MB  (
 Рейтинг:   3.6 (Голосов: 28)
 Поблагодарили:   51
 Проверка:   Оформление проверено модератором 20 Авг 2012 18:14:17
•••
Поддержите мой проект и выход новых релизов:

•••
Как cкачать  ·  Как раздать  ·  Правильно оформить  ·  Поднять ратио!  
Топик был перенесен из форума Счастливы вместе в форум Архив Сериалов


Garryson
Показать сообщения:   
Начать новую тему   Ответить на тему    Торрент-трекер NNM-Club -> Архив торрентов -> Архив Сериалов и Архив Старого многосерийного кино до 90-х Часовой пояс: GMT + 3
Страница 1 из 1