Классический форум-трекер
canvas not supported
Нас вместе: 4 232 306

Счастливы вместе (6 сезон, 33 серия из 50) (2012) SATRip


 
 
RSS
Начать новую тему   Ответить на тему    Торрент-трекер NNM-Club -> Архив торрентов -> Архив Сериалов и Архив Старого многосерийного кино до 90-х
Автор Сообщение
ZoNoW ®
Модератор Видео
Стаж: 12 лет 11 мес.
Сообщений: 8456
Ratio: 699K
Раздал: 84.2 TB
Поблагодарили: 4011238
100%
ussr.gif
Счастливы вместе (6 сезон, 33 серия из 50) (2012) SATRip
Русское название: Счастливы вместе
Год выпуска: 2012
Выпущено: Россия, Телекомпания ТНТ
Жанр: Комедия, Семейный



Режиссер: Георгий Дронов, Шабан Муслимов, Иван Китаев
Актеры: Виктор Логинов, Наталья Бочкарева, Дарья Сагалова, Александр Якин, Татьяна Уфимцева, Павел Савинков, Алексей Секирин, Юлия Захарова

Описание фильма:
Новый сезон “Счастливы вместе”

Ситком «Счастливы вместе» уже долгое время удерживает высочайшие рейтинги. Благодаря такой зрительской любви впервые за всю историю мирового проката сериала создатели разрешили сценаристам ТНТ дописать еще 100 эпизодов, которых нет в оригинальном американском сценарии. В новых сериях ожидается множество звезд в непривычных для них ролях, неожиданные и фантастические повороты сюжета и много житейского юмора – покой Букиным только снится.

Продолжительность: 00:23:00 серия
Качество видео: SATRip

Видеокодек: XviD
Битрейт видео: 1665 kbps
Размер кадра: 704x400
Аудиокодек: MP3, 2 ch
Битрейт аудио: 192 kbps
Код:
Общее
Полное имя                       : D:\НЕ УДАЛЯТЬ!!!\Schastlivi.Vmeste.33.seriya.2012.SATRip.avi
Формат                           : AVI
Формат/Информация                : Audio Video Interleave
Размер файла                     : 289 Мбайт
Продолжительность                : 21 м.
Общий поток                      : 1867 Кбит/сек
Программа кодирования            : VirtualDubMod 1.5.10.3 | www.virtualdub-fr.org || (build 2550/release)
Библиотека кодирования           : VirtualDub build 29808/release

Видео
Идентификатор                    : 0
Формат                           : MPEG-4 Visual
Профиль формата                  : Advanced Simple@L5
Параметр BVOP формата            : 1
Параметр QPel формата            : Нет
Параметр GMC формата             : Без точки перехода
Параметр матрицы формата         : Default (H.263)
Идентификатор кодека             : XVID
Идентификатор кодека/Подсказка   : XviD
Продолжительность                : 21 м.
Битрейт                          : 1665 Кбит/сек
Ширина                           : 704 пикселя
Высота                           : 400 пикселей
Соотношение сторон               : 16:9
Частота кадров                   : 25,000 кадров/сек
Цветовое пространство            : YUV
Субдискретизация насыщенности    : 4:2:0
Битовая глубина                  : 8 бит
Тип развёртки                    : Прогрессивная
Метод сжатия                     : С потерями
Бит/(Пиксели*Кадры)              : 0.237
Размер потока                    : 258 Мбайт (89%)
Библиотека кодирования           : XviD 1.2.1 (UTC 2008-12-04)

Аудио
Идентификатор                    : 1
Формат                           : MPEG Audio
Версия формата                   : Version 1
Профиль формата                  : Layer 3
Режим                            : Joint stereo
Расширение режима                : MS Stereo
Идентификатор кодека             : 55
Идентификатор кодека/Подсказка   : MP3
Продолжительность                : 21 м.
Вид битрейта                     : Постоянный
Битрейт                          : 192 Кбит/сек
Каналы                           : 2 канала
Частота                          : 48,0 КГц
Метод сжатия                     : С потерями
Размер потока                    : 29,7 Мбайт (10%)
Выравнивание                     : Соединение по промежуткам
Продолжительность промежутка     : 40  мс. (1,00 видеокадр)
Время предзагрузки промежутка    : 504  мс.
Библиотека кодирования           : LAME3.98.4


Скриншоты:


Приятного просмотра
и не забываем говорить СПАСИБО...

Все части сериала на NNM-Club

Время раздачи: 24/7,
до 5 скачавших.
[NNM-Club.ru]_Schastlivi.Vmeste.33.seriya.2012.SATRip.avi.torrent
 Торрент: Золотая раздача  Зарегистрирован
 
Зарегистрируйтесь и скачайте торрент!
11.5 KB

 Зарегистрирован:   31 Авг 2012 12:29:14
 Размер:   289 MB  (
 Рейтинг:   4 (Голосов: 27)
 Поблагодарили:   59
 Проверка:   Оформление проверено модератором 31 Авг 2012 14:25:58
•••
Поддержите мой проект и выход новых релизов:

•••
Как cкачать  ·  Как раздать  ·  Правильно оформить  ·  Поднять ратио!  
lyka91
Только чтение
Стаж: 13 лет 11 мес.
Сообщений: 392
Ratio: 9.723
0.65%
Мерзость....
nout83
Стаж: 14 лет 3 мес.
Сообщений: 82
Ratio: 0.502
Раздал: 852 GB
100%
ukraine.gif
Так не смотри.Зашёл в раздачу что бы эту хрень написать..?

_________________
Вчера ты пил чефир - сегодня ты кумир..!
Показать сообщения:   
Начать новую тему   Ответить на тему    Торрент-трекер NNM-Club -> Архив торрентов -> Архив Сериалов и Архив Старого многосерийного кино до 90-х Часовой пояс: GMT + 3
Страница 1 из 1