Классический форум-трекер
canvas not supported
Нас вместе: 4 171 743

Лучшие приколы скрытой камерой / Just For Laughs Gags (2012) WEBRip [H.264] [Part 2]


 
 
RSS
Начать новую тему   Ответить на тему    Торрент-трекер NNM-Club -> Юмор -> Приколы
Автор Сообщение
Microsoft SQL ®
Uploader 500+
Стаж: 10 лет 9 мес.
Сообщений: 2023
Ratio: 4639.413
Поблагодарили: 53855
100%
israel.gif
Лучшие приколы скрытой камерой / Just For Laughs Gags (2012) WEBRip [H.264] [Part 2]
Русское название: Лучшие приколы скрытой камерой
Оригинальное название: Just For Laughs Gags
Режиссер / Телекомпания: Just for laughs
Год выпуска: 2012
Жанр: Юмор, скрытая камера, розыгрыши

Описание:
Лучшая передача жанра. Ничего не понимающие прохожие оказываются в самых нелепых ситуациях, в этом им помогают несколько профессиональных актёров.Происходящее снимается на скрытую камеру.

Продолжительность: 01:52:45

Перевод: Не требуется

Видеокодек: MPEG-4 AVC/H.264
Битрейт видео: ~600-1600 kbps
Размер кадра: 640x360
Качество видео: WEBRip
Аудиокодек: AAC
Битрейт аудио: 96 kbps

Скриншоты:
Общее
Полное имя : \Best of just for laughs (2012) part 2.mp4
Формат : MPEG-4
Профиль формата : Base Media / Version 2
Идентификатор кодека : mp42
Размер файла : 568 Мбайт
Продолжительность : 1 ч. 52 м.
Режим общего битрейта : Переменный
Общий поток : 704 Кбит/сек
Дата кодирования : UTC 2012-06-18 13:46:42
Дата пометки : UTC 2012-06-18 13:46:42
gsst : 0
gstd : 6765991
gssd : BC30CB00BHH1345738264915214
gshh : o-o---preferred---teo-klj1---v24---lscache8.c.youtube.com

Видео
Идентификатор : 1
Формат : AVC
Формат/Информация : Advanced Video Codec
Профиль формата : Baseline@L3.0
Параметр CABAC формата : Нет
Параметр ReFrames формата : 1 кадр
Идентификатор кодека : avc1
Идентификатор кодека/Информация : Advanced Video Coding
Продолжительность : 1 ч. 52 м.
Битрейт : 606 Кбит/сек
Максимальный битрейт : 1774 Кбит/сек
Ширина : 640 пикселей
Высота : 360 пикселей
Соотношение сторон : 16:9
Режим частоты кадров : Постоянный
Частота кадров : 25,000 кадров/сек
Цветовое пространство : YUV
Субдискретизация насыщенности : 4:2:0
Битовая глубина : 8 бит
Тип развёртки : Прогрессивная
Бит/(Пиксели*Кадры) : 0.105
Размер потока : 488 Мбайт (86%)
Дата пометки : UTC 2012-06-18 13:46:46

Аудио
Идентификатор : 2
Формат : AAC
Формат/Информация : Advanced Audio Codec
Профиль формата : LC
Идентификатор кодека : 40
Продолжительность : 1 ч. 52 м.
Вид битрейта : Переменный
Битрейт : 96,0 Кбит/сек
Максимальный битрейт : 146 Кбит/сек
Каналы : 2 канала
Расположение каналов : Front: L R
Частота : 44,1 КГц
Метод сжатия : С потерями
Размер потока : 77,4 Мбайт (14%)
Заголовок : IsoMedia File Produced by Google, 5-11-2011
Дата кодирования : UTC 2012-06-18 13:46:43
Дата пометки : UTC 2012-06-18 13:46:46
Время раздачи: 24/7
[NNM-Club.ru]_Best of just for laughs (2012) part 2.mp4.torrent
 Торрент: Платиновая раздача  Зарегистрирован
 
Скачать


Примагнититься
 Зарегистрирован:   01 Сен 2012 13:55:52
 Размер:   568 MB  (
 Рейтинг:   4.7 (Голосов: 27)
 Поблагодарили:   98
 Проверка:   Оформление проверено модератором 01 Сен 2012 13:55:58
Как cкачать  ·  Как раздать  ·  Правильно оформить  ·  Поднять ратио!  
WooX007
Стаж: 8 лет 11 мес.
Сообщений: 52
Ratio: 1.546
100%
как зовут девушку блондинку из just for laughs :(
Показать сообщения:   
Начать новую тему   Ответить на тему    Торрент-трекер NNM-Club -> Юмор -> Приколы Часовой пояс: GMT + 3
Страница 1 из 1