Классический форум-трекер
canvas not supported
Нас вместе: 4 232 430

Человек дождя / Rain man (1988) BDRip


 
 
RSS
Начать новую тему   Ответить на тему    Торрент-трекер NNM-Club -> Классика кино и Старые фильмы до 90-х -> Зарубежная Классика (SD)
Автор Сообщение
smpeal ®
Стаж: 11 лет 8 мес.
Сообщений: 62
Ratio: 99.375
Поблагодарили: 7336
100%
ussr.gif
Человек дождя / Rain man (1988) BDRip
Производство: США / Guber-Peters Company, Mirage Entertainment, Star Partners II Ltd., United Artists
Жанр: драма

Режиссер: Барри Левинсон
Актеры: Дастин Хоффман, Том Круз, Валерия Голино, Джералд Р. Молен, Джек Мёрдок, Майкл Д. Робертс, Ральф Сеймур, Люсинда Дженни, Бонни Хант, Ким Робиллард

Описание:
Грубоватому и эгоистичному молодому человеку Чарли в наследство от отца достались лишь розовые кусты да «Бьюик» 1949 года, а львиная доля наследства уходит его брату-аутисту Раймонду. Задавшись целью отобрать «свою долю», Чарли похищает старшего брата. Но когда выясняет, что Раймонд обладает недюжими математическими способностями, памятью и внимательностью, решает использовать это в корыстных целях.


Возраст: 16+ (зрителям, достигшим 16 лет)
Рейтинг MPAA: R (лицам до 17 лет обязательно присутствие взрослого)

Продолжительность: 02:13:50
Качество видео: BDRip
Перевод: Дублированный, многоголосый
Субтитры: Отсутствуют

Видео: Xvid, 720x384, 23.976 fps, 1871 Kbps
Аудио #1: AC-3, 48.0 KHz, 6 ch, 448 Kbps - русский (многоголосый)
Аудио #2: AC-3, 48.0 KHz, 2 ch, 192 Kbps - русский (дублированный "Варус-Видео")

Награды и номинации
Общее
Полное имя : ...\Фильмы\Зарубежная классика\[nnm-club]_Человек дождя (1998) BDRip+дубляж Варус-Видео.avi
Формат : AVI
Формат/Информация : Audio Video Interleave
Профиль формата : OpenDML
Размер файла : 2,36 Гбайт
Продолжительность : 2 ч. 13 м.
Общий поток : 2528 Кбит/сек
Программа кодирования : VirtualDubModRus 1.5.10.2 (build 2542/release)
Библиотека кодирования : VirtualDubMod build 2542/release

Видео
Идентификатор : 0
Формат : MPEG-4 Visual
Профиль формата : Advanced Simple@L5
Параметр BVOP формата : 1
Параметр QPel формата : Нет
Параметр GMC формата : Без точки перехода
Параметр матрицы формата : Выборочная
Идентификатор кодека : XVID
Идентификатор кодека/Подсказка : XviD
Продолжительность : 2 ч. 13 м.
Битрейт : 1871 Кбит/сек
Ширина : 720 пикселей
Высота : 384 пикселя
Соотношение сторон : 1,85:1
Частота кадров : 23,976 кадра/сек
Цветовое пространство : YUV
Субдискретизация насыщенности : 4:2:0
Битовая глубина : 8 бит
Тип развёртки : Прогрессивная
Метод сжатия : С потерями
Бит/(Пиксели*Кадры) : 0.282
Размер потока : 1,75 Гбайт (74%)
Библиотека кодирования : XviD 57

Аудио #1
Идентификатор : 1
Формат : AC-3
Формат/Информация : Audio Coding 3
Расширение режима : CM (complete main)
Параметр Endianness формата : Big
Идентификатор кодека : 2000
Продолжительность : 2 ч. 13 м.
Вид битрейта : Постоянный
Битрейт : 448 Кбит/сек
Каналы : 6 каналов
Расположение каналов : Front: L C R, Side: L R, LFE
Частота : 48,0 КГц
Битовая глубина : 16 бит
Метод сжатия : С потерями
Размер потока : 429 Мбайт (18%)
Выравнивание : Разделение по промежуткам
Продолжительность промежутка : 42 мс. (1,00 видеокадр)
Время предзагрузки промежутка : 500 мс.

Аудио #2
Идентификатор : 2
Формат : AC-3
Формат/Информация : Audio Coding 3
Расширение режима : CM (complete main)
Параметр Endianness формата : Big
Идентификатор кодека : 2000
Продолжительность : 2 ч. 13 м.
Вид битрейта : Постоянный
Битрейт : 192 Кбит/сек
Каналы : 2 канала
Расположение каналов : Front: L R
Частота : 48,0 КГц
Битовая глубина : 16 бит
Метод сжатия : С потерями
Размер потока : 184 Мбайт (8%)
Выравнивание : Разделение по промежуткам
Продолжительность промежутка : 42 мс. (1,00 видеокадр)
Время предзагрузки промежутка : 500 мс.
1) 2 премии Давид ди Донателло в Италии — за лучший иностранный фильм и лучшему иностранному актёру;
2) 4 премии Оскар, 1989 год: лучший фильм, лучшая мужская роль (Дастин Хоффман), лучший режиссер (Барри Левинсон), лучший оригинальный сценарий;
3) 2 премии Золотой глобус, 1989 год: лучший фильм (драма), лучшая мужская роль (Дастин Хоффман);
4) 2 премии Берлинского кинофестиваля, 1989 год: Золотой Медведь, приз газеты Berliner Morgenpost;
1) Сезар, 1990 год: лучший фильм на иностранном языке;
2) Британская академия, 1990 год: лучшая мужская роль (Дастин Хоффман), лучший оригинальный сценарий, лучший монтаж;
3) Оскар, 1989 год: лучшая работа оператора, лучшие декорации, лучший монтаж, лучший оригинальный саундтрек;
4) Золотой глобус, 1989 год: лучший режиссер (Барри Левинсон), лучший сценарий;
Скриншоты:

Все одноименные релизы в Клубе

Время раздачи: По выходным
[NNM-Club.ru]_Chelovek.dozhdia.1988.BDRip+dublyag.Varus-Video.avi.torrent
 Торрент: Платиновая раздача  Зарегистрирован
 
Скачать


Примагнититься
 Зарегистрирован:   02 Сен 2012 18:17:56
 Размер:   2.36 GB  (
 Рейтинг:   4.9 (Голосов: 213)
 Поблагодарили:   808
 Проверка:   Оформление проверено модератором 12 Июн 2022 18:03:08
Как cкачать  ·  Как раздать  ·  Правильно оформить  ·  Поднять ратио!  
ivanreb-13
Стаж: 14 лет 6 мес.
Сообщений: 66
Ratio: 8.988
100%
russia.gif
В названии файла ошибка указан 1998 год
[nnm-club]_Человек дождя (1998) BDRip+дубляж Варус-Видео.avi

Спасибо за фильм.
rn3qmo
Стаж: 12 лет 11 мес.
Сообщений: 156
Ratio: 2.876
44.75%
logo.gif
Хорошее кино. По первой ссылке попал на вас. )) (релизера) Спасибо сказал кнопкой!)
Останусь на раздаче,фильм нравится.
judah92
Стаж: 11 лет 1 мес.
Сообщений: 8
Ratio: 7.829
87.5%
russia.gif
Спасибо. Но за каким лешим описывать сюжет?
cccp39
Стаж: 12 лет 7 мес.
Сообщений: 672
Ratio: 521.839
100%
russia.gif
Спасибо за раздачу
kristadze
Стаж: 12 лет 3 мес.
Сообщений: 384
Ratio: 5.687
100%
спасибо, можно добавить в коллекцию в хорошем качестве этот отличный фильм...
Nujhm
Стаж: 9 лет 10 мес.
Сообщений: 33
Ratio: 4.924
100%
Откуда: Москва
russia.gif
:плач: Шикарный фильм...
S@D
Стаж: 14 лет 6 мес.
Сообщений: 264
Ratio: 7.053
3.13%
Великолепный фильм. Спасибо.
DJMCDEN
Стаж: 9 лет 5 мес.
Сообщений: 156
Ratio: 1.582
100%
Откуда: ДОНЕЦК, ДНР
russia.gif
Это единственное кино которое я посмотрел 10 раз подряд
Очень давно (90-е) у нас на районе ВИДЕО-канал. Платишь в месяц плату и смотришь фильмы. Да конечно не было право выбора.
По всему району висели АФИШИ, с расписанием дня и времени показа фильма.
И у них был раз в месяц день ПРОФИЛАКТИКИ оборудования. и обычно в этот день они ставили одну кассету и она просто по кругу показывалсь .
и именно в этот день показывали ЧЕЛОВЕК ДОЖДЯ (два часа), а остальное было дописано мультиками ТОМ И ДЖЕРРИ. Так вот целый день эта кассета была на повторе.
И я его как раз и посмотрел 10 раз подряд
zizitopov
Стаж: 12 лет
Сообщений: 47
Ratio: 1.527
1.95%
Классика! Сегодня такое кино не снимают
Показать сообщения:   
Начать новую тему   Ответить на тему    Торрент-трекер NNM-Club -> Классика кино и Старые фильмы до 90-х -> Зарубежная Классика (SD) Часовой пояс: GMT + 3
Страница 1 из 1