Классический форум-трекер
canvas not supported
Нас вместе: 4 232 315

Скромное обаяние буржуазии / Le charme discret de la bourgeoisie (1972) BDRip


 
 
RSS
Начать новую тему   Ответить на тему    Торрент-трекер NNM-Club -> Классика кино и Старые фильмы до 90-х -> Старые Зарубежные Фильмы (SD)
Автор Сообщение
eXPpectant ®
Стаж: 14 лет 5 мес.
Сообщений: 2457
Ratio: 1628.264
Раздал: 18.08 TB
Поблагодарили: 308034
100%
Откуда: Нижний Тагил + Дмитров
russia.gif
Скромное обаяние буржуазии / Le charme discret de la bourgeoisie (1972) BDRip
Производство: Франция, Италия, Испания / Dean Film, Greenwich Film Productions, Jet Films S.A.
Жанр: Драма, Комедия, Фэнтези

Описание:
Насмешливая, сюрреалистическая зарисовка никчемной жизни буржуа. Респектабельные герои фильма собираются на обед, но их чинному времяпрепровождению с завидным постоянством препятствуют непредвиденные обстоятельства. Компания собралась как будто вполне благопристойная (есть даже посол из южноамериканской страны). Но постепенно со злой иронией и беспощадностью Бунюэль обнажает их совсем не привлекательную сущность.

Режиссер: Луис Бунюэль
Актеры: Фернандо Рей, Стефан Одран, Дельфин Сейриг, Булль Ожье, Стефан Одран, Жан-Пьер Кассель, Жюльен Берто, Милена Вукотич, Мария Габриелла Майоне, Клод Пьеплю

Продолжительность: 01:41:32
Перевод: Дублированный



Видеокодек: Xvid
Битрейт видео: ~1724 kb/s
Размер кадра: 720х432
Качество видео: BDRip
Аудио:
Аудио#1:
Русский (АС3, 1 ch, 96 kb/s)
Аудио#2: Французский (АС3, 2 ch, 192 kb/s)
Сэмпл:
Общее
Полное имя : D:\Торрент раздача\Skromnoe.obajanie.burzhuazii.1972.XviD.BDRip.avi
Формат : AVI
Формат/Информация : Audio Video Interleave
Размер файла : 1,44 Гбайт
Продолжительность : 1 ч. 41 м.
Общий поток : 2026 Кбит/сек
Программа кодирования : VirtualDubModRus 1.5.10.2 (build 2542/release)
Библиотека кодирования : VirtualDubMod build 2542/release

Видео
Идентификатор : 0
Формат : MPEG-4 Visual
Профиль формата : Advanced Simple@L5
Параметр BVOP формата : 4
Параметр QPel формата : Да
Параметр GMC формата : Без точки перехода
Параметр матрицы формата : Default (H.263)
Идентификатор кодека : XVID
Идентификатор кодека/Подсказка : XviD
Продолжительность : 1 ч. 41 м.
Битрейт : 1724 Кбит/сек
Ширина : 720 пикселей
Высота : 432 пикселя
Соотношение сторон : 1,667
Частота кадров : 24,000 кадра/сек
Цветовое пространство : YUV
Субдискретизация насыщенности : 4:2:0
Битовая глубина : 8 бит
Тип развёртки : Прогрессивная
Метод сжатия : С потерями
Бит/(Пиксели*Кадры) : 0.231
Размер потока : 1,22 Гбайт (85%)
Библиотека кодирования : XviD 1.2.1 (UTC 2008-12-04)

Аудио #1
Идентификатор : 1
Формат : AC-3
Формат/Информация : Audio Coding 3
Расширение режима : CM (complete main)
Параметр Endianness формата : Big
Идентификатор кодека : 2000
Продолжительность : 1 ч. 41 м.
Вид битрейта : Постоянный
Битрейт : 96,0 Кбит/сек
Каналы : 1 канал
Расположение каналов : Front: C
Частота : 48,0 КГц
Битовая глубина : 16 бит
Метод сжатия : С потерями
Размер потока : 69,4 Мбайт (5%)
Выравнивание : Разделение по промежуткам
Продолжительность промежутка : 42 мс. (1,00 видеокадр)
Время предзагрузки промежутка : 500 мс.

Аудио #2
Идентификатор : 2
Формат : AC-3
Формат/Информация : Audio Coding 3
Расширение режима : CM (complete main)
Параметр Endianness формата : Big
Идентификатор кодека : 2000
Продолжительность : 1 ч. 41 м.
Вид битрейта : Постоянный
Битрейт : 192 Кбит/сек
Каналы : 2 канала
Расположение каналов : Front: L R
Частота : 48,0 КГц
Битовая глубина : 16 бит
Метод сжатия : С потерями
Размер потока : 139 Мбайт (9%)
Выравнивание : Разделение по промежуткам
Продолжительность промежутка : 42 мс. (1,00 видеокадр)
Время предзагрузки промежутка : 500 мс.
Британская академия, 1974 год
Победитель (2):
Лучшая женская роль (Стефан Одран)
Лучший сценарий
Номинации (3):
Лучший фильм
Лучший режиссер (Луис Бунюэль)
Лучший саундтрек

Оскар, 1973 год
Победитель (1):
Лучший фильм на иностранном языке — «Франция»
Номинации (1):
Лучший адаптированный сценарий по мотивам ранее не опубликованного материала или документальных фактов

Золотой глобус, 1973 год
Номинации (1):
Лучший иностранный фильм — «Франция»
Луис Бунюэль указан в титрах как создатель звуковых эффектов, несмотря на то что в то время он был уже почти полностью глухим.
Одна из фирменных «фишек» Луиса Бунюэля — насекомые. В этом фильме в эпизоде пытки в тюрьме из фортепиано появляются тараканы.
Когда дон Рафаэль Акоста говорит Флоранс о своем дне рождения, он называет дату рождения Луиса Бунюэля — 22 февраля.
Скриншоты:

Все одноименные релизы в Клубе
Время раздачи: 24/7
[NNM-Club.ru]_Skromnoe.obajanie.burzhuazii.1972.XviD.BDRip.torrent
 Торрент: Платиновая раздача  Зарегистрирован
 
Скачать


Примагнититься
 Зарегистрирован:   25 Ноя 2018 08:03:16
 Размер:   1.44 GB  (
 Рейтинг:   4.6 (Голосов: 58)
 Поблагодарили:   286
 Проверка:   Оформление проверено модератором 25 Ноя 2018 23:02:55
Как cкачать  ·  Как раздать  ·  Правильно оформить  ·  Поднять ратио!  
lplp2
Стаж: 13 лет 8 мес.
Сообщений: 164
Ratio: 4.653
Раздал: 9.262 TB
100%
russia.gif
спасибо
Ди_Анна
Стаж: 14 лет 4 мес.
Сообщений: 144
Ratio: 13.287
Поблагодарили: 744
92.71%
witch.png
Ух-ты...Спасибо.
nikula271
Стаж: 12 лет 1 мес.
Сообщений: 403
Ratio: 17.494
100%
russia.gif
Фильм смотрел уже не один раз,с удовольствием пересмотрю ещё.
Помидор1978
Стаж: 13 лет 6 мес.
Сообщений: 258
Ratio: 8.194
0.27%
Забавный фильмец. Всё думал, когда же этой компашке удастся поесть нормально.
Лев Лещенко
Стаж: 15 лет 6 мес.
Сообщений: 622
Ratio: 11.235
Раздал: 14.46 TB
Поблагодарили: 566
91.11%
india.gif
посмотрел, спасибо....
их всех глючит постоянно - вероятно из-за кокаина, который привозит посол )))))
Показать сообщения:   
Начать новую тему   Ответить на тему    Торрент-трекер NNM-Club -> Классика кино и Старые фильмы до 90-х -> Старые Зарубежные Фильмы (SD) Часовой пояс: GMT + 3
Страница 1 из 1