Классический форум-трекер
canvas not supported
Нас вместе: 4 233 721

Адвокат дьявола / The Devil's Advocate (1997) BDRip


 
 
RSS
Начать новую тему   Ответить на тему    Торрент-трекер NNM-Club -> Зарубежное кино -> Зарубежные Фильмы (SD)
Автор Сообщение
Zov72 ®
Стаж: 14 лет 4 мес.
Сообщений: 4743
Ratio: 110.504
Поблагодарили: 611319
100%
Откуда: Вольный кабан
wild_hogs.gif
Адвокат дьявола / The Devil's Advocate (1997) BDRip
«У зла свой путь к победе»

Русское название: Адвокат дьявола
Оригинальное название: The Devil's Advocate
Производство: США, Германия
Год выпуска: 1997
Жанр: Триллер, драма, детектив

Описание фильма:
В Нью-Йорк по приглашению главы крупного юридического концерна прибывает Кевин Ломакс, молодой адвокат. До этого он был известен тем, что защищал исключительно негодяев и притом не проиграл ни одного процесса. На новом месте работы он вполне счастлив, он живет в роскошной квартире с любящей женой, его окружают интересные люди…

Режиссер: Тейлор Хэкфорд
Актеры: Аль Пачино, Крэйг Т. Нельсон, Конни Нильсен, Джудит Айви, Киану Ривз, Джеффри Джонс, Тамара Тюни, Рубен Сантьяго-Хадсон, Шарлиз Терон, Дебра Монк

Качество видео: BDRip
Продолжительность: 02:23:55
Перевод: Дублированный
Язык субтитров: Отсутствуют

Видеокодек: Xvid
Битрейт видео: ~1250 Кбит/с
Размер кадра: 720x304 (2.37:1)
Аудио: AC3, 2ch, ~192.00 kbps
Код:

Общее
Полное имя                               : E:\Загрузка\Advokat_dyavola_1997_BDRip.avi
Формат                                   : AVI
Формат/Информация                        : Audio Video Interleave
Размер файла                             : 1,46 Гбайт
Продолжительность                        : 2 ч. 23 м.
Общий поток                              : 1452 Кбит/сек
Программа кодирования                    : VirtualDubMod 1.5.10.3 | www.virtualdub-fr.org || (build 2550/release)
Библиотека кодирования                   : VirtualDubMod build 2550/release

Видео
Идентификатор                            : 0
Формат                                   : MPEG-4 Visual
Профиль формата                          : Advanced Simple@L5
Параметр BVOP формата                    : 1
Параметр QPel формата                    : Нет
Параметр GMC формата                     : Без точки перехода
Параметр матрицы формата                 : Выборочная
Идентификатор кодека                     : XVID
Идентификатор кодека/Подсказка           : XviD
Продолжительность                        : 2 ч. 23 м.
Битрейт                                  : 1250 Кбит/сек
Ширина                                   : 720 пикселей
Высота                                   : 304 пикселя
Соотношение сторон                       : 2,35:1
Частота кадров                           : 23,976 кадра/сек
Цветовое пространство                    : YUV
Субдискретизация насыщенности            : 4:2:0
Битовая глубина                          : 8 бит
Тип развёртки                            : Прогрессивная
Метод сжатия                             : С потерями
Бит/(Пиксели*Кадры)                      : 0.238
Размер потока                            : 1,26 Гбайт (86%)
Библиотека кодирования                   : XviD 65

Аудио
Идентификатор                            : 1
Формат                                   : AC-3
Формат/Информация                        : Audio Coding 3
Расширение режима                        : CM (complete main)
Параметр Endianness формата              : Big
Идентификатор кодека                     : 2000
Продолжительность                        : 2 ч. 23 м.
Вид битрейта                             : Постоянный
Битрейт                                  : 192 Кбит/сек
Каналы                                   : 2 канала
Расположение каналов                     : Front: L R
Частота                                  : 48,0 КГц
Битовая глубина                          : 16 бит
Метод сжатия                             : С потерями
Размер потока                            : 198 Мбайт (13%)
Выравнивание                             : Разделение по промежуткам
Продолжительность промежутка             : 42  мс. (1,00 видеокадр)
Время предзагрузки промежутка            : 500  мс.


Cкриншоты из фильма:



Приятного просмотра
и не забываем говорить СПАСИБО...

Время раздачи: 24/7
до 15 скачавших..
[NNM-Club.ru]_Advokat_dyavola_1997_BDRip.avi.torrent
 Торрент: Платиновая раздача  Зарегистрирован
 
Скачать


Примагнититься
 Зарегистрирован:   09 Сен 2012 21:56:27
 Размер:   1.46 GB  (
 Рейтинг:   4.9 (Голосов: 101)
 Поблагодарили:   322
 Проверка:   Оформление проверено модератором 09 Сен 2012 22:02:33
Как cкачать  ·  Как раздать  ·  Правильно оформить  ·  Поднять ратио!  
veber_06
Стаж: 13 лет 2 мес.
Сообщений: 223
Ratio: 8.829
3.76%
ukraine.gif
Роскошный фильм и супер Шарлиз Терон.
Voin-700
Стаж: 13 лет 6 мес.
Сообщений: 235
Ratio: 212.043
100%
Откуда: Такой страны уже нет(((
ussr.gif
Отличный фильм!!!
socet111
Стаж: 13 лет 3 мес.
Сообщений: 515
Ratio: 8.553
100%
Откуда: Киев
ukraine.gif
veber_06 писал(а): Перейти к сообщению
Роскошный фильм и супер Шарлиз Терон.

Даже не роскошный, а шикарный шедевр. Давненько смотрел, но с удовольствием ещё просмотрю :шок:
Veeever
Стаж: 11 лет 10 мес.
Сообщений: 42
Ratio: 41.391
100%
Фильм на самом деле супер :клево:
expefate
Стаж: 12 лет 10 мес.
Сообщений: 107
Ratio: 1.977
Поблагодарили: 25
95.42%
ukraine.gif
Киану=) как всегда на высоте
minimalfly
Стаж: 13 лет 2 мес.
Сообщений: 649
Ratio: 1.263
Поблагодарили: 1575
100%
veber_06 писал(а): Перейти к сообщению
Роскошный фильм и супер Шарлиз Терон.
:поклоняется: Шарлиз Терон
likse
Стаж: 11 лет 7 мес.
Сообщений: 27
Ratio: 54.266
100%
Откуда: Россия
russia.gif
супер

_________________
Тысячи путей ведут к заблуждению, к истине — только один.
Показать сообщения:   
Начать новую тему   Ответить на тему    Торрент-трекер NNM-Club -> Зарубежное кино -> Зарубежные Фильмы (SD) Часовой пояс: GMT + 3
Страница 1 из 1