Классический форум-трекер
canvas not supported
Нас вместе: 4 233 580

Адвокат дьявола / The Devil's Advocate (1997) HDRip


 
 
RSS
Начать новую тему   Ответить на тему    Торрент-трекер NNM-Club -> Зарубежное кино -> Зарубежные Фильмы (SD)
Автор Сообщение
Zov72 ®
Стаж: 14 лет 4 мес.
Сообщений: 4743
Ratio: 110.504
Поблагодарили: 611310
100%
Откуда: Вольный кабан
wild_hogs.gif
Адвокат дьявола / The Devil's Advocate (1997) НDRip
«У зла свой путь к победе»

Русское название: Адвокат дьявола
Оригинальное название: The Devil's Advocate
Производство: США, Германия
Год выпуска: 1997
Жанр: Триллер, драма, детектив

Описание фильма:
В Нью-Йорк по приглашению главы крупного юридического концерна прибывает Кевин Ломакс, молодой адвокат. До этого он был известен тем, что защищал исключительно негодяев и притом не проиграл ни одного процесса. На новом месте работы он вполне счастлив, он живет в роскошной квартире с любящей женой, его окружают интересные люди…

Режиссер: Тейлор Хэкфорд
Актеры: Аль Пачино, Крэйг Т. Нельсон, Конни Нильсен, Джудит Айви, Киану Ривз, Джеффри Джонс, Тамара Тюни, Рубен Сантьяго-Хадсон, Шарлиз Терон, Дебра Монк

Качество видео: НDRip
Продолжительность: 02:23:55
Перевод: Дублированный
Язык субтитров: Отсутствуют

Автор рипа: Scarabey

Видеокодек: Xvid
Битрейт видео: ~1769 Кбит/с
Размер кадра: 720x304 (2.37:1)
Аудио: AC3, 6ch, ~384.00 kbps
Код:

Общее
Полное имя                               : E:\Загрузка\Advokat_dyavola_HDRip.avi
Формат                                   : AVI
Формат/Информация                        : Audio Video Interleave
Профиль формата                          : OpenDML
Размер файла                             : 2,18 Гбайт
Продолжительность                        : 2 ч. 23 м.
Общий поток                              : 2165 Кбит/сек
Программа кодирования                    : VirtualDubMod 1.5.10.2 (build 2540/release)
Библиотека кодирования                   : VirtualDubMod build 2540/release

Видео
Идентификатор                            : 0
Формат                                   : MPEG-4 Visual
Профиль формата                          : Advanced Simple@L5
Параметр BVOP формата                    : 1
Параметр QPel формата                    : Нет
Параметр GMC формата                     : Без точки перехода
Параметр матрицы формата                 : Выборочная
Идентификатор кодека                     : XVID
Идентификатор кодека/Подсказка           : XviD
Продолжительность                        : 2 ч. 23 м.
Битрейт                                  : 1769 Кбит/сек
Ширина                                   : 720 пикселей
Высота                                   : 304 пикселя
Соотношение сторон                       : 2,35:1
Частота кадров                           : 23,976 кадра/сек
Цветовое пространство                    : YUV
Субдискретизация насыщенности            : 4:2:0
Битовая глубина                          : 8 бит
Тип развёртки                            : Прогрессивная
Метод сжатия                             : С потерями
Бит/(Пиксели*Кадры)                      : 0.337
Размер потока                            : 1,78 Гбайт (82%)
Библиотека кодирования                   : XviD 1.2.1 (UTC 2008-12-04)

Аудио
Идентификатор                            : 1
Формат                                   : AC-3
Формат/Информация                        : Audio Coding 3
Расширение режима                        : CM (complete main)
Параметр Endianness формата              : Big
Идентификатор кодека                     : 2000
Продолжительность                        : 2 ч. 23 м.
Вид битрейта                             : Постоянный
Битрейт                                  : 384 Кбит/сек
Каналы                                   : 6 каналов
Расположение каналов                     : Front: L C R, Side: L R, LFE
Частота                                  : 48,0 КГц
Битовая глубина                          : 16 бит
Метод сжатия                             : С потерями
Размер потока                            : 395 Мбайт (18%)
Выравнивание                             : Разделение по промежуткам
Продолжительность промежутка             : 42  мс. (1,00 видеокадр)
Время предзагрузки промежутка            : 500  мс.


Cкриншоты из фильма:



Приятного просмотра
и не забываем говорить СПАСИБО...

Время раздачи: 24/7
до 15 скачавших..
[NNM-Club.ru]_Advokat_dyavola_HDRip.avi.torrent
 Торрент: Платиновая раздача  Зарегистрирован
 
Скачать


Примагнититься
 Зарегистрирован:   11 Сен 2012 00:26:23
 Размер:   2.18 GB  (
 Рейтинг:   4.5 (Голосов: 35)
 Поблагодарили:   95
 Проверка:   Оформление проверено модератором 11 Сен 2012 06:55:20
Как cкачать  ·  Как раздать  ·  Правильно оформить  ·  Поднять ратио!  
Показать сообщения:   
Начать новую тему   Ответить на тему    Торрент-трекер NNM-Club -> Зарубежное кино -> Зарубежные Фильмы (SD) Часовой пояс: GMT + 3
Страница 1 из 1