Классический форум-трекер
canvas not supported
Нас вместе: 4 233 354

Запасной игрок (1954) DVD5


 
 
RSS
Начать новую тему   Ответить на тему    Торрент-трекер NNM-Club -> Классика кино и Старые фильмы до 90-х -> Отечественная Классика (DVD)
Автор Сообщение
smpeal ®
Стаж: 11 лет 9 мес.
Сообщений: 62
Ratio: 99.87
Поблагодарили: 7340
100%
ussr.gif
Запасной игрок (1954) DVD5
Не только ноги нужны в футболе,
Нужна в футболе между прочим голова.

Русское название: Запасной игрок
Год выпуска: 1954
Жанр: Комедия, спорт

Описание фильма:
Заводская команда «Синие Стрелы» выходит в финал, и отправляется на теплоходе в Сухуми для встречи с «Вымпелом», считающимся фаворитом. Но, прежде чем матч состоится, героям фильма предстоит пережить множество приключений.

Подающий надежды запасной игрок Вася Веснушкин (Георгий Вицин) влюблен в гимнастку Валю (Татьяна Конюхова), но опасается, что та предпочтет ему зазнавшегося старшего брата, лучшего игрока той же команды.

Также на борту теплохода находится молодой киноактёр Светланов (Павел Кадочников), переодевшийся стариком Дедушкиным, для лучшего проникновения в образ будущей роли. Сотрудники института геронтологии принимают «старика» за профессора Бабушкина. Старший Веснушкин, выпив вина, обижает «пожилого» человека, и опрометчиво вызовет его на боксёрский поединок. Дедушкин снимает с себя грим и снова становится Светлановым. Тренер «Синих Стрел» Лев Павлович (Марк Бернес) запрещает Веснушкину-старшему выходить на ринг, и вместо него на бой со Светлановым (который, оказывается, к тому же боксёр-любитель) выходит Вася Веснушкин. Светланов явно превосходит по классу Веснушкина-младшего, но неумолимая воля к победе последнего заставляет всех признать ничью.

В Сухуми перед матчем тренер проводит замену: вместо Веснушкина-старшего ставит Васю. Младший брат в отличной форме, он даже забивает гол «Вымпелу». Но незадолго до конца 1 тайма вратарь получает травму. А поскольку запасной вратарь укушен пчелой, тренер ставит на ворота Васю и выпускает на поле Сашу Веснушкина. В самом конце матча уже после свистка судьи Васе приходится отражать пенальти, и он справляется с задачей. «Синие Стрелы» выиграли, и Валя, наконец, принимает от Васи подарок, давая ему знать, что он тоже стал ей близок.

Режиссер: Семён Тимошенко ("Вратарь", "Небесный тихоход")
Композитор: Исаак Дунаевский ("Веселые ребята", "Вратарь", "Дети капитана Гранта")
Актеры: Георгий Вицин, Павел Кадочников, Татьяна Конюхова, Всеволод Кузнецов, Гликерия Богданова-Чеснокова, Сергей Филиппов,
Марк Бернес, Мария Миронова, Николай Рыбников
Комментирует матч: Виктор Набутов
Продолжительность: 01:18:04



Мировая премьера: 30 апреля 1955
Релиз на DVD: 7 сентября 2009
На съёмках фильма герой Вицина на боксёрском ринге должен был драться с героем Павла Кадочникова. На репетиции поединка Вицин так разошёлся, что всерьёз атаковал Кадочникова. Кадочников, занимавшийся боксом профессионально, среагировал автоматически. В результате Вицин очнулся с трещиной в ребре…
Так получилось, что в фильме на крупных планах — «актеры-футболисты» Георгий Вицин, Павел Кадочников и Алексей Рыбников (тренером был Марк Бернес), а на общем плане показан самый настоящий четвертьфинальный матч Кубка СССР 1954 года, участником которого были клубы Металлург (Днепропетровск) - ныне Днепр и ОДО (Ленинград).
Видеокодек: MPEG-2
Битрейт видео: ~5424 kbps
Размер кадра: 720x480
Качество видео: DVD5
Аудио:
1. АС3, 448 kbps, 6 каналов
2. АС3, 224 kbps, 2 канала
Субтитры: Русские, английские, немецкие (отключаемые)
Доп.материалы: Создатели и исполнители, смотрите на DVD, каталог
Общее
Полное имя : ...\Фильмы\Отечественная классика\Запасной игрок (1954) DVD5\VIDEO_TS\VTS_07_1.VOB
Формат : MPEG-PS
Размер файла : 1024 Мбайт
Продолжительность : 23 м.
Режим общего битрейта : Переменный
Общий поток : 6219 Кбит/сек

Видео
Идентификатор : 224 (0xE0)
Формат : MPEG Video
Версия формата : Version 2
Профиль формата : Main@Main
Параметр BVOP формата : Да
Параметр матрицы формата : Выборочная
Параметр GOP формата : M=3, N=15
Продолжительность : 23 м.
Вид битрейта : Переменный
Битрейт : 5424 Кбит/сек
Максимальный битрейт : 3000 Кбит/сек
Ширина : 352 пикселя
Высота : 480 пикселей
Соотношение сторон : 4:3
Частота кадров : 29,970 кадров/сек
Стандарт вещания : NTSC
Цветовое пространство : YUV
Субдискретизация насыщенности : 4:2:0
Битовая глубина : 8 бит
Тип развёртки : Чересстрочная
Порядок развёртки : Верхнее поле первое
Метод сжатия : С потерями
Бит/(Пиксели*Кадры) : 1.071
Размер потока : 893 Мбайт (87%)

Аудио #1
Идентификатор : 189 (0xBD)-128 (0x80)
Формат : AC-3
Формат/Информация : Audio Coding 3
Расширение режима : CM (complete main)
Параметр Endianness формата : Big
Режим смешивания : DVD-Video
Продолжительность : 23 м.
Вид битрейта : Постоянный
Битрейт : 448 Кбит/сек
Каналы : 6 каналов
Расположение каналов : Front: L C R, Side: L R, LFE
Частота : 48,0 КГц
Битовая глубина : 16 бит
Метод сжатия : С потерями
Задержка видео : -66 мс.
Размер потока : 73,7 Мбайт (7%)

Аудио #2
Идентификатор : 189 (0xBD)-129 (0x81)
Формат : AC-3
Формат/Информация : Audio Coding 3
Расширение режима : CM (complete main)
Параметр Endianness формата : Big
Режим смешивания : DVD-Video
Продолжительность : 22 м.
Вид битрейта : Постоянный
Битрейт : 224 Кбит/сек
Каналы : 2 канала
Расположение каналов : Front: L R
Частота : 48,0 КГц
Битовая глубина : 16 бит
Метод сжатия : С потерями
Задержка видео : 2 с. 858 мс.
Размер потока : 36,8 Мбайт (4%)

Текст #1
Идентификатор : 189 (0xBD)-32 (0x20)
Формат : RLE
Формат/Информация : Run-length encoding
Режим смешивания : DVD-Video

Текст #2
Идентификатор : 189 (0xBD)-33 (0x21)
Формат : RLE
Формат/Информация : Run-length encoding
Режим смешивания : DVD-Video

Текст #3
Идентификатор : 189 (0xBD)-34 (0x22)
Формат : RLE
Формат/Информация : Run-length encoding
Режим смешивания : DVD-Video
Title: Запасной игрок (1954) DVD5
Size: 4.27 Gb ( 4 474 700,00 KBytes ) - DVD-5
Enabled regions: 1, 2, 3, 4, 5, 6, 7, 8

VTS_01 :
Play Length: 00:00:10
Video: NTSC 4:3 (720x480) VBR

VTS_02 :
Play Length: 00:00:11
Video: NTSC 4:3 (720x480) VBR
Audio:
Russian, AC3, 3/2 (L,C,R,SL,SR)+LFE ch, 448 kbps, Delay 0 mSec

VTS_03 :
Play Length: 00:02:40
Video: NTSC 4:3 (720x480) VBR
Audio:
Russian, AC3, 2/0 (L,R) ch, 192 kbps, Delay 0 mSec

VTS_04 :
Play Length: 00:02:55
Video: NTSC 4:3 (720x480) VBR
Audio:
Russian, AC3, 2/0 (L,R) ch, 192 kbps, Delay 0 mSec

VTS_05 :
Play Length: 00:03:00
Video: NTSC 4:3 (720x480) VBR
Audio:
Russian, AC3, 2/0 (L,R) ch, 192 kbps, Delay 0 mSec

VTS_06 :
Play Length: 00:02:46
Video: NTSC 4:3 (720x480) VBR
Audio:
Russian, AC3, 2/0 (L,R) ch, 192 kbps, Delay 0 mSec

VTS_07 :
Play Length: 01:18:04
Video: NTSC 4:3 (720x480) VBR
Audio:
Russian, AC3, 3/2 (L,C,R,SL,SR)+LFE ch, 448 kbps, Delay 0 mSec
Russian, AC3, 2/0 (L,R) ch, 224 kbps, Delay 2924 mSec

Subtitles:
Russian
English
Deutsch

VTS_08 :
Play Length: 00:00:10
Video: NTSC 4:3 (720x480) VBR
Audio:
Russian, AC3, 2/0 (L,R) ch, 192 kbps, Delay 0 mSec

VTS_09 :
Play Length: 00:00:10
Video: NTSC 4:3 (720x480) VBR

* Menus Information *

VIDEO_TS Menu
Video:
NTSC 4:3 (720x480) VBR
English Language Unit :
Title Menu

VTS_01 Menu
Video:
NTSC 4:3 (720x480) VBR
Audio:
Not specified (Dolby AC3, 2 ch)
English Language Unit :
Root Menu

VTS_02 Menu
Video:
NTSC 4:3 (720x480) VBR
English Language Unit :
Root Menu

VTS_03 Menu
Video:
NTSC 4:3 (720x480) VBR
English Language Unit :
Root Menu

VTS_04 Menu
Video:
NTSC 4:3 (720x480) VBR
English Language Unit :
Root Menu

VTS_05 Menu
Video:
NTSC 4:3 (720x480) VBR
English Language Unit :
Root Menu

VTS_06 Menu
Video:
NTSC 4:3 (720x480) VBR
English Language Unit :
Root Menu

VTS_07 Menu
Video:
NTSC 4:3 (720x480) VBR
English Language Unit :
Root Menu

VTS_08 Menu
Video:
NTSC 4:3 (720x480) VBR
English Language Unit :
Root Menu

VTS_09 Menu
Video:
NTSC 4:3 (720x480) VBR
English Language Unit :
Root Menu
Скриншоты:


Время раздачи: В выходные с 12 до 23, иногда в будни
[NNM-Club.ru]_Zapasnoj_igrok_1954_DVD5.torrent
 Торрент: Платиновая раздача  Зарегистрирован
 
Скачать


Примагнититься
 Зарегистрирован:   16 Сен 2012 19:11:59
 Размер:   4.27 GB  (
 Рейтинг:   4.7 (Голосов: 42)
 Поблагодарили:   105
 Проверка:   Оформление проверено модератором 16 Сен 2012 21:31:37
Как cкачать  ·  Как раздать  ·  Правильно оформить  ·  Поднять ратио!  
Elgreco
Стаж: 16 лет 5 мес.
Сообщений: 24
Ratio: 1.604
100%
Клевое кино!
Торин35
Стаж: 13 лет
Сообщений: 104
Ratio: 2.049
Раздал: 25.3 GB
100%
russia.gif
Хороший фильм. Настоящая ностальгия!
Показать сообщения:   
Начать новую тему   Ответить на тему    Торрент-трекер NNM-Club -> Классика кино и Старые фильмы до 90-х -> Отечественная Классика (DVD) Часовой пояс: GMT + 3
Страница 1 из 1