Классический форум-трекер
canvas not supported
Нас вместе: 4 233 354

Крепость: Дилогия / Fortress: Dilogy (1992, 2000) 2хDVD5


 
 
RSS
Начать новую тему   Ответить на тему    Торрент-трекер NNM-Club -> Коллекции / *логии -> Зарубежное кино (коллекции / *логии)
Автор Сообщение
smpeal ®
Стаж: 11 лет 9 мес.
Сообщений: 62
Ratio: 99.87
Поблагодарили: 7340
100%
ussr.gif
Крепость / Fortress (1992) DVD5
Русское название: Крепость
Оригинальное название: Fortress
Год выпуска: 1992
Жанр: Фантастика, Боевик, Триллер
Перевод: Двухголосый закадровый
Язык субтитров: Русский
Вид субтитров: Вшитые (отключаемые)

Описание фильма:
2017 год. Жизнь на Земле стала тяжела и жестока. Природные ресурсы на исходе, а население чудовищно увеличилось. Результат всего этого — строгий режим и новый закон о том, что женщина может иметь только одного ребенка. После смерти первенца, Бренник и его жена Карен нарушают закон и ждут рождения второго ребенка. Их заключают в Крепость, самую изощренную тюрьму с максимальной степенью защиты, из которой еще никому не удавалось выбраться. Подвергнутый чудовищным пыткам, Бренник решает бежать любой ценой.

Режиссер: Стюарт Гордон
Актеры: Кристофер Ламберт, Лорин Локлин, Кертвуд Смит, Клифтон Коллинз мл., Линкольн Килпатрик, Вернон Уэллс, Джеффри Комбс, Том Таулз, Кэролин Пёрди-Гордон

Продолжительность: 01:35:45



Дата мировой премьеры: 18 декабря 1992

Видеокодек: MPEG-2
Битрейт видео: 5172 kbps
Размер кадра: 720x576@1024@576
Качество видео: DVD5
Аудио:
1. АС3, 384 kbps, 2 канала, русский двухголосый закадровый;
2. АС3, 384 kbps, 2 канала, английский оригинальный;
Дополнительные материалы: DVD клуб, новинки, скоро на DVD
Общее
Полное имя : ...\Фильмы\Зарубежные\Fortress (Крепость)\Fortress\VIDEO_TS\VTS_01_1.VOB
Формат : MPEG-PS
Размер файла : 1024 Мбайт
Продолжительность : 23 м.
Общий поток : 6061 Кбит/сек

Видео
Идентификатор : 224 (0xE0)
Формат : MPEG Video
Версия формата : Version 2
Профиль формата : Main@Main
Параметр BVOP формата : Да
Параметр матрицы формата : По умолчанию
Параметр GOP формата : M=3, N=13
Продолжительность : 23 м.
Битрейт : 5172 Кбит/сек
Максимальный битрейт : 7500 Кбит/сек
Ширина : 720 пикселей
Высота : 576 пикселей
Соотношение сторон : 4:3
Частота кадров : 25,000 кадров/сек
Стандарт вещания : PAL
Цветовое пространство : YUV
Субдискретизация насыщенности : 4:2:0
Битовая глубина : 8 бит
Тип развёртки : Чересстрочная
Порядок развёртки : Верхнее поле первое
Метод сжатия : С потерями
Бит/(Пиксели*Кадры) : 0.499
Размер потока : 874 Мбайт (85%)
Основные цвета : BT.601 PAL
Характеристики трансфера : BT.470 System B, BT.470 System G
Коэффициенты матрицы : BT.601

Аудио #1
Идентификатор : 189 (0xBD)-128 (0x80)
Формат : AC-3
Формат/Информация : Audio Coding 3
Расширение режима : CM (complete main)
Параметр Endianness формата : Big
Режим смешивания : DVD-Video
Продолжительность : 23 м.
Вид битрейта : Постоянный
Битрейт : 384 Кбит/сек
Каналы : 6 каналов
Расположение каналов : Front: L C R, Side: L R, LFE
Частота : 48,0 КГц
Битовая глубина : 16 бит
Метод сжатия : С потерями
Размер потока : 64,9 Мбайт (6%)

Аудио #2
Идентификатор : 189 (0xBD)-129 (0x81)
Формат : AC-3
Формат/Информация : Audio Coding 3
Расширение режима : CM (complete main)
Параметр Endianness формата : Big
Режим смешивания : DVD-Video
Продолжительность : 23 м.
Вид битрейта : Постоянный
Битрейт : 384 Кбит/сек
Каналы : 6 каналов
Расположение каналов : Front: L C R, Side: L R, LFE
Частота : 48,0 КГц
Битовая глубина : 16 бит
Метод сжатия : С потерями
Размер потока : 64,9 Мбайт (6%)
Title: Fortress
Size: 4.30 Gb ( 4 505 142,00 KBytes ) - DVD-5
Enabled regions: 1, 2, 3, 4, 5, 6, 7, 8

VTS_01 :
Play Length: 00:00:28+01:35:17+00:00:00
Video: PAL 4:3 (720x576) VBR
Audio:
Russian (Dolby AC3, 6 ch)
English (Dolby AC3, 6 ch)
Subtitles:
Russian

* Menus Information *

VIDEO_TS Menu
Video:
NTSC 4:3 (720x480) VBR
Auto Pan&Scan, Auto Letterboxed
Language Unit :

VTS_01 Menu
Video:
PAL 4:3 (720x576) VBR
Audio:
Not specified (Dolby AC3, 2 ch)
English Language Unit :
Root Menu
Скриншоты:


Крепость-2: Возвращение / Fortress-2: Re-entry (2000) DVD5
Русское название: Крепость-2: Возвращение
Оригинальное название: Fortress-2: Re-entry
Год выпуска: 2000
Жанр: Фантастика, Боевик, Триллер
Перевод: Многоголосый закадровый
Язык субтитров: Русский
Вид субтитров: Вшитые (отключаемые)

Описание фильма:
10 лет спустя. Корпорация Мен-Телл охотится за Джоном Бренником. Арест неизбежен. Его помещают в самую совершенную тюрьму во вселенной, находящейся на космической орбите. Джон пытается совершить побег, но система охраны преподносит ему самые неожиданные сюрпризы. Кто победит в этом поединке: человек или электронные системы охраны…

Режиссер: Джеф Мерфи
Актеры: Кристофер Ламберт, Юджи Окумото, Лиз Мэй Брайс, Дэвид Роберсон, Эйдан Ри, Бет Туссэн, Уилли Гарсон, Брюс МакЮэн, Стивен Шиверс

Продолжительность: 01:29:01



Дата мировой премьеры: 2 марта 2000

Видеокодек: MPEG-2
Битрейт видео: 5048 kbps
Размер кадра: 720x576@1024@576
Качество видео: DVD5
Аудио:
1. АС3, 448 kbps, 2 канала, русский многоголосый закадровый;
2. АС3, 448 kbps, 2 канала, английский оригинальный;
Дополнительные материалы: Трейлер, на съемках (англ.)
Общее
Полное имя : ...\Фильмы\Зарубежные\Fortress (Крепость)\Fortress-2\VIDEO_TS\VTS_01_1.VOB
Формат : MPEG-PS
Размер файла : 1024 Мбайт
Продолжительность : 24 м.
Режим общего битрейта : Переменный
Общий поток : 5944 Кбит/сек

Видео
Идентификатор : 224 (0xE0)
Формат : MPEG Video
Версия формата : Version 2
Профиль формата : Main@Main
Параметр BVOP формата : Да
Параметр матрицы формата : Выборочная
Продолжительность : 24 м.
Битрейт : 5048 Кбит/сек
Вид битрейта : Переменный
Максимальный битрейт : 9800 Кбит/сек
Ширина : 720 пикселей
Высота : 576 пикселей
Соотношение сторон : 16:9
Частота кадров : 25,000 кадров/сек
Стандарт вещания : PAL
Цветовое пространство : YUV
Субдискретизация насыщенности : 4:2:0
Битовая глубина : 8 бит
Тип развёртки : Чересстрочная
Порядок развёртки : Верхнее поле первое
Метод сжатия : С потерями

Аудио #1
Идентификатор : 189 (0xBD)-128 (0x80)
Формат : AC-3
Формат/Информация : Audio Coding 3
Расширение режима : CM (complete main)
Параметр Endianness формата : Big
Режим смешивания : DVD-Video
Продолжительность : 24 м.
Вид битрейта : Постоянный
Битрейт : 448 Кбит/сек
Каналы : 6 каналов
Расположение каналов : Front: L C R, Side: L R, LFE
Частота : 48,0 КГц
Битовая глубина : 16 бит
Метод сжатия : С потерями
Размер потока : 77,2 Мбайт (8%)

Аудио #2
Идентификатор : 189 (0xBD)-129 (0x81)
Формат : AC-3
Формат/Информация : Audio Coding 3
Расширение режима : CM (complete main)
Параметр Endianness формата : Big
Режим смешивания : DVD-Video
Продолжительность : 24 м.
Вид битрейта : Постоянный
Битрейт : 448 Кбит/сек
Каналы : 6 каналов
Расположение каналов : Front: L C R, Side: L R, LFE
Частота : 48,0 КГц
Битовая глубина : 16 бит
Метод сжатия : С потерями
Размер потока : 77,2 Мбайт (8%)

Аудио #3
Идентификатор : 223 (0xDF)
Формат : MPEG Audio
Метод сжатия : С потерями

Текст #1
Идентификатор : 189 (0xBD)-32 (0x20)
Формат : RLE
Формат/Информация : Run-length encoding
Режим смешивания : DVD-Video
Продолжительность : 24 м.

Текст #2
Идентификатор : 189 (0xBD)-33 (0x21)
Формат : RLE
Формат/Информация : Run-length encoding
Режим смешивания : DVD-Video
Продолжительность : 24 м.
Title: Fortress-2
Size: 3.78 Gb ( 3 968 150,00 KBytes ) - DVD-5
Enabled regions: 1, 2, 3, 4, 5, 6, 7, 8

VTS_01 :
Play Length: 01:29:01
Video: PAL 16:9 (720x576) VBR, Auto Letterboxed
Audio:
Russian (Dolby AC3, 6 ch)
English (Dolby AC3, 6 ch)
Subtitles:
English
Russian

VTS_02 :
Play Length: 00:01:32
Video: PAL 4:3 (720x576) VBR
Audio:
English (Dolby AC3, 2 ch)

VTS_03 :
Play Length: 00:03:54
Video: PAL 4:3 (720x576) VBR
Audio:
English (Dolby AC3, 2 ch)

* Menus Information *

VIDEO_TS Menu
Video:
PAL 4:3 (720x576) VBR
Audio:
Not specified (Dolby AC3, 6 ch)
Russian Language Unit :

Language Unit :

VTS_01 Menu
Video:
PAL 4:3 (720x576) VBR
Russian Language Unit :
Root Menu
Subpicture Menu
Audio Menu
Chapter (PTT) Menu
Language Unit :

VTS_02 Menu
Video:
PAL 4:3 (720x576) VBR
English Language Unit :
Root Menu

VTS_03 Menu
Video:
PAL 4:3 (720x576) VBR
English Language Unit :
Root Menu
Скриншоты:


Время раздачи: По выходным с 12 до 23, иногда в будни
[NNM-Club.ru]_Fortress_and_Fortress-2_2xDVD5.torrent
 Торрент: Платиновая раздача  Зарегистрирован
 
Скачать


 Зарегистрирован:   16 Сен 2012 23:34:46
 Размер:   8.08 GB  (
 Рейтинг:   4.8 (Голосов: 25)
 Поблагодарили:   84
 Проверка:   Оформление проверено модератором 21 Сен 2012 13:02:02
Как cкачать  ·  Как раздать  ·  Правильно оформить  ·  Поднять ратио!  
lu4ok-xxx
Стаж: 11 лет 6 мес.
Сообщений: 2
Ratio: 89.075
100%
где раздающие???
shadow26091976
Стаж: 12 лет 9 мес.
Сообщений: 50
Ratio: 1.765
Поблагодарили: 233
88.85%
russia.gif
lu4ok-xxx писал(а): Перейти к сообщению
где раздающие???

Поддерживаю!
Показать сообщения:   
Начать новую тему   Ответить на тему    Торрент-трекер NNM-Club -> Коллекции / *логии -> Зарубежное кино (коллекции / *логии) Часовой пояс: GMT + 3
Страница 1 из 1