Классический форум-трекер
canvas not supported
Нас вместе: 4 232 304

Папины дочки. Суперневесты (371-398 серии) (2012) IPTVRip (обновляемая)


Страницы:  1, 2  След. 
 
RSS
Начать новую тему   Ответить на тему    Торрент-трекер NNM-Club -> Отечественные сериалы
Автор Сообщение
fanDYNAMO ®
Модератор Музыки
RG Music
Стаж: 11 лет 11 мес.
Сообщений: 4299
Ratio: 116.535
Раздал: 50.08 TB
Поблагодарили: 103063
100%
Откуда: Вільна країна!
ukraine.gif
Папины дочки. Суперневесты (2012) IPTVRip (обновляемая)
Режиссер / Телекомпания: Кирилл Папакуль / СТС
Русское название: Папины дочки. Суперневесты
Год выпуска: 2012
Жанр: Семейный, Комедия, Ситком


Дата российской премьеры: 03.09.2012

Режиссер: Сергей Алдонин, Александр Жигалкин
Актеры: Мирослава Карпович, Анастасия Сиваева, Дарья Мельникова, Елизавета Арзамасова, Екатерина Старшова, Андрей Леонов, Нонна Гришаева, Ольга Волкова, Александр Самойленко, Татьяна Орлова, Михаил Казаков, Филипп Бледный, Александр Олешко, Михаил Башкатов, Сергей Лазарев, Иван Николаев

Описание фильма:
Главное событие новых серий «Папиных дочек» — воссоединение семьи Васнецовых! Теперь вся семья, включая Папу (актер Андрей Леонов), Маму (актриса Нонна Гришаева), пять дочек (актрисы Настя Сиваева, Мирослава Карпович, Лиза Арзамасова, Даша Мельникова, Катя Старшова), Веника (актер Филипп Бледный) и даже Олигарха (актер Александр Олешко), будет жить в загородном доме в местечке с забавным названием Лохово.
С переездом поменяется жизнь каждого члена семьи Васнецовых. Маша устроится на работу... актрисой! Даша погрузится в семейную жизнь и воспитание дочки Сони. Галина Сергеевна начнет встречаться с принцем, причем с настоящим! У Жени тоже случится настоящая любовь, но ей снова придется покинуть отчий дом. Ну, а Пуговка… Ей, как всегда, простят все шалости, чем она беззастенчиво будет пользоваться.
Папу с мамой ждет немало хлопот в новом сезоне, ведь они воспитывают маленького сына и пять дочек… Но, несмотря на семейные хлопоты, в их жизни найдется место и романтическим отношениям.

Продолжительность: ~00:25:00
Качество видео: IPTVRip

Видеокодек: Xvid
Битрейт видео: ~1500 kbps
Размер кадра: 704x368
Аудиокодек: MP3
Битрейт аудио: ~128.00


Описание: Папа, Даша, Маша, Галина Сергеевна и Пуговка переезжают. Папа, как профессиональный психолог, старается решить все конфликты, возникающие в большой семье. Даша пытается уклониться от обязанностей кухарки, но из-за Папы вынуждена их выполнять. Маша, Пуговка и Галина Сергеевна делят комнаты. Наконец-то все понимают, как здорово жить в отдельном доме. Вскоре приезжает Женя…

Продолжительность: 00:23:34

Видеокодек: Xvid
Битрейт видео: ~1494 kbps
Размер кадра: 704x368
Качество видео: SATRip
Аудиокодек: MP3
Битрейт аудио: 128 Кбит/с
General
Complete name : E:\Фильмы и сериалы\Папины дочки. Суперневесты\371.avi
Format : AVI
Format/Info : Audio Video Interleave
File size : 275 MiB
Duration : 23mn 34s
Overall bit rate : 1 633 Kbps
Writing library : VirtualDub build 32842/release

Video
ID : 0
Format : MPEG-4 Visual
Format profile : Advanced Simple@L5
Format settings, BVOP : 2
Format settings, QPel : No
Format settings, GMC : No warppoints
Format settings, Matrix : Default (MPEG)
Codec ID : XVID
Codec ID/Hint : XviD
Duration : 23mn 34s
Bit rate : 1 495 Kbps
Width : 704 pixels
Height : 368 pixels
Display aspect ratio : 1.913
Frame rate : 25.000 fps
Color space : YUV
Chroma subsampling : 4:2:0
Bit depth : 8 bits
Scan type : Progressive
Compression mode : Lossy
Bits/(Pixel*Frame) : 0.231
Stream size : 252 MiB (92%)
Writing library : XviD 64

Audio
ID : 1
Format : MPEG Audio
Format version : Version 1
Format profile : Layer 3
Mode : Joint stereo
Mode extension : MS Stereo
Codec ID : 55
Codec ID/Hint : MP3
Duration : 23mn 34s
Bit rate mode : Constant
Bit rate : 128 Kbps
Channel(s) : 2 channels
Sampling rate : 48.0 KHz
Compression mode : Lossy
Stream size : 21.6 MiB (8%)
Alignment : Split accross interleaves
Interleave, duration : 40 ms (1.00 video frame)
Interleave, preload duration : 500 ms
Описание: Начало совместной жизни. Папа пытается самоутвердиться, он соперничает с Веником за роль «альфа-самца». Мама воспитывает Машу, Галину Сергеевну, Женю и Пуговку. Маша бросает Маме вызов, однако после этого она вынуждена прятаться в комнате Даши. Веник хочет извиниться перед Папой. Галина Сергеевна и Женя покупают собаку

Продолжительность: 00:23:32

Видеокодек: Xvid
Битрейт видео: ~1494 kbps
Размер кадра: 704x368
Качество видео: SATRip
Аудиокодек: MP3
Битрейт аудио: 128 Кбит/с
General
Complete name : E:\Фильмы и сериалы\Папины дочки. Суперневесты\372.avi
Format : AVI
Format/Info : Audio Video Interleave
File size : 275 MiB
Duration : 23mn 32s
Overall bit rate : 1 633 Kbps
Writing library : VirtualDub build 32842/release

Video
ID : 0
Format : MPEG-4 Visual
Format profile : Advanced Simple@L5
Format settings, BVOP : 2
Format settings, QPel : No
Format settings, GMC : No warppoints
Format settings, Matrix : Default (MPEG)
Codec ID : XVID
Codec ID/Hint : XviD
Duration : 23mn 32s
Bit rate : 1 495 Kbps
Width : 704 pixels
Height : 368 pixels
Display aspect ratio : 1.913
Frame rate : 25.000 fps
Color space : YUV
Chroma subsampling : 4:2:0
Bit depth : 8 bits
Scan type : Progressive
Compression mode : Lossy
Bits/(Pixel*Frame) : 0.231
Stream size : 252 MiB (92%)
Writing library : XviD 64

Audio
ID : 1
Format : MPEG Audio
Format version : Version 1
Format profile : Layer 3
Mode : Joint stereo
Mode extension : MS Stereo
Codec ID : 55
Codec ID/Hint : MP3
Duration : 23mn 32s
Bit rate mode : Constant
Bit rate : 128 Kbps
Channel(s) : 2 channels
Sampling rate : 48.0 KHz
Compression mode : Lossy
Stream size : 21.6 MiB (8%)
Alignment : Split accross interleaves
Interleave, duration : 40 ms (1.00 video frame)
Interleave, preload duration : 500 ms
Описание: Маша пытается избавиться от поклонника с помощью ребенка Даши. В результате она знакомится с актером. Всё идёт к тому, что у Дашиной Сони появится еще два отца. Даша хочет доказать Маме, что у Маши нет никаких материнских инстинктов. Галина Сергеевна и Женя узнают, что Папу не приняли на работу, и не знают, как ему сообщить об этом. Веник изобретает «отучатель» для собаки

Продолжительность: 00:23:52

Видеокодек: Xvid
Битрейт видео: ~1490 kbps
Размер кадра: 704x368
Качество видео: SATRip
Аудиокодек: MP3
Битрейт аудио: 128 Кбит/с
General
Complete name : E:\Фильмы и сериалы\Папины дочки. Суперневесты\373.avi
Format : AVI
Format/Info : Audio Video Interleave
File size : 278 MiB
Duration : 23mn 52s
Overall bit rate : 1 628 Kbps
Writing library : VirtualDub build 32842/release

Video
ID : 0
Format : MPEG-4 Visual
Format profile : Advanced Simple@L5
Format settings, BVOP : 2
Format settings, QPel : No
Format settings, GMC : No warppoints
Format settings, Matrix : Default (MPEG)
Codec ID : XVID
Codec ID/Hint : XviD
Duration : 23mn 52s
Bit rate : 1 490 Kbps
Width : 704 pixels
Height : 368 pixels
Display aspect ratio : 1.913
Frame rate : 25.000 fps
Color space : YUV
Chroma subsampling : 4:2:0
Bit depth : 8 bits
Scan type : Progressive
Compression mode : Lossy
Bits/(Pixel*Frame) : 0.230
Stream size : 254 MiB (92%)
Writing library : XviD 64

Audio
ID : 1
Format : MPEG Audio
Format version : Version 1
Format profile : Layer 3
Mode : Joint stereo
Mode extension : MS Stereo
Codec ID : 55
Codec ID/Hint : MP3
Duration : 23mn 52s
Bit rate mode : Constant
Bit rate : 128 Kbps
Channel(s) : 2 channels
Sampling rate : 48.0 KHz
Compression mode : Lossy
Stream size : 21.9 MiB (8%)
Alignment : Split accross interleaves
Interleave, duration : 40 ms (1.00 video frame)
Interleave, preload duration : 500 ms
Описание: Папа устраивается на работу благодаря Олигарху, а Маша — благодаря Маме. Веник занимается с Женей утренней гимнастикой на пляже. Даша начинает ревновать Веника к местным красавицам.

Продолжительность: 00:24:13

Видеокодек: Xvid
Битрейт видео: ~1490 kbps
Размер кадра: 704x368
Качество видео: SATRip
Аудиокодек: MP3
Битрейт аудио: 128 Кбит/с
General
Complete name : E:\Фильмы и сериалы\Папины дочки. Суперневесты\374.avi
Format : AVI
Format/Info : Audio Video Interleave
File size : 283 MiB
Duration : 24mn 13s
Overall bit rate : 1 633 Kbps
Writing library : VirtualDub build 32842/release

Video
ID : 0
Format : MPEG-4 Visual
Format profile : Advanced Simple@L5
Format settings, BVOP : 2
Format settings, QPel : No
Format settings, GMC : No warppoints
Format settings, Matrix : Default (MPEG)
Codec ID : XVID
Codec ID/Hint : XviD
Duration : 24mn 13s
Bit rate : 1 495 Kbps
Width : 704 pixels
Height : 368 pixels
Display aspect ratio : 1.913
Frame rate : 25.000 fps
Color space : YUV
Chroma subsampling : 4:2:0
Bit depth : 8 bits
Scan type : Progressive
Compression mode : Lossy
Bits/(Pixel*Frame) : 0.231
Stream size : 259 MiB (92%)
Writing library : XviD 64

Audio
ID : 1
Format : MPEG Audio
Format version : Version 1
Format profile : Layer 3
Mode : Joint stereo
Mode extension : MS Stereo
Codec ID : 55
Codec ID/Hint : MP3
Duration : 24mn 13s
Bit rate mode : Constant
Bit rate : 128 Kbps
Channel(s) : 2 channels
Sampling rate : 48.0 KHz
Compression mode : Lossy
Stream size : 22.2 MiB (8%)
Alignment : Split accross interleaves
Interleave, duration : 40 ms (1.00 video frame)
Interleave, preload duration : 500 ms
Описание: Папа и Веник, горя желанием избавиться от «семейного рабства», строят баню. Даша умоляет Веника прибить полку, а Маша, Женя, мама и Пуговка пытаются помыть собаку.

Продолжительность: 00:23:29

Видеокодек: Xvid
Битрейт видео: ~1494 kbps
Размер кадра: 704x368
Качество видео: SATRip
Аудиокодек: MP3
Битрейт аудио: 128 Кбит/с
General
Complete name : E:\Фильмы и сериалы\Папины дочки. Суперневесты\375.avi
Format : AVI
Format/Info : Audio Video Interleave
File size : 274 MiB
Duration : 23mn 29s
Overall bit rate : 1 633 Kbps
Writing library : VirtualDub build 32842/release

Video
ID : 0
Format : MPEG-4 Visual
Format profile : Advanced Simple@L5
Format settings, BVOP : 2
Format settings, QPel : No
Format settings, GMC : No warppoints
Format settings, Matrix : Default (MPEG)
Codec ID : XVID
Codec ID/Hint : XviD
Duration : 23mn 29s
Bit rate : 1 495 Kbps
Width : 704 pixels
Height : 368 pixels
Display aspect ratio : 1.913
Frame rate : 25.000 fps
Color space : YUV
Chroma subsampling : 4:2:0
Bit depth : 8 bits
Scan type : Progressive
Compression mode : Lossy
Bits/(Pixel*Frame) : 0.231
Stream size : 251 MiB (92%)
Writing library : XviD 64

Audio
ID : 1
Format : MPEG Audio
Format version : Version 1
Format profile : Layer 3
Mode : Joint stereo
Mode extension : MS Stereo
Codec ID : 55
Codec ID/Hint : MP3
Duration : 23mn 29s
Bit rate mode : Constant
Bit rate : 128 Kbps
Channel(s) : 2 channels
Sampling rate : 48.0 KHz
Compression mode : Lossy
Stream size : 21.5 MiB (8%)
Alignment : Split accross interleaves
Interleave, duration : 40 ms (1.00 video frame)
Interleave, preload duration : 500 ms
Описание: Папа узнает, что гражданский муж Тамары - жуткий ревнивец. Но ведь семейные проблемы - папин профиль. В результате Папе приходится спасать от ревнивца своего друга Антонова, а Антонову приходится делать предложение своей любовнице. У Маши появляется возможность сняться для рекламы. Чтобы получить роль, Маша... ест огурцы. Это настораживает сестер. Мама помогает Маше вернуть профессиональную уверенность. А Галина Сергеевна стреляет из гранатомета!

Продолжительность: 00:23:44

Видеокодек: Xvid
Битрейт видео: ~1494 kbps
Размер кадра: 704x368
Качество видео: SATRip
Аудиокодек: MP3
Битрейт аудио: 128 Кбит/с
General
Complete name : E:\Фильмы и сериалы\Папины дочки. Суперневесты\376.avi
Format : AVI
Format/Info : Audio Video Interleave
File size : 277 MiB
Duration : 23mn 44s
Overall bit rate : 1 633 Kbps
Writing library : VirtualDub build 32842/release

Video
ID : 0
Format : MPEG-4 Visual
Format profile : Advanced Simple@L5
Format settings, BVOP : 2
Format settings, QPel : No
Format settings, GMC : No warppoints
Format settings, Matrix : Default (MPEG)
Codec ID : XVID
Codec ID/Hint : XviD
Duration : 23mn 44s
Bit rate : 1 495 Kbps
Width : 704 pixels
Height : 368 pixels
Display aspect ratio : 1.913
Frame rate : 25.000 fps
Color space : YUV
Chroma subsampling : 4:2:0
Bit depth : 8 bits
Scan type : Progressive
Compression mode : Lossy
Bits/(Pixel*Frame) : 0.231
Stream size : 254 MiB (92%)
Writing library : XviD 64

Audio
ID : 1
Format : MPEG Audio
Format version : Version 1
Format profile : Layer 3
Mode : Joint stereo
Mode extension : MS Stereo
Codec ID : 55
Codec ID/Hint : MP3
Duration : 23mn 44s
Bit rate mode : Constant
Bit rate : 128 Kbps
Channel(s) : 2 channels
Sampling rate : 48.0 KHz
Compression mode : Lossy
Stream size : 21.7 MiB (8%)
Alignment : Split accross interleaves
Interleave, duration : 40 ms (1.00 video frame)
Interleave, preload duration : 500 ms
Описание: В гости к Васнецовым приходит Олигарх. Он хочет понять, в чем заключается простое человеческое счастье. Чтобы усадить за общий стол «дружную» семейку, папе приходится призвать на помощь Пуговку, Мама узнает, что у Маши нет никаких ночных репетиций. Даша призывает всех говорить только правду. А ГС пытается уединиться.

Продолжительность: 00:24:13

Видеокодек: Xvid
Битрейт видео: ~1494 kbps
Размер кадра: 704x368
Качество видео: SATRip
Аудиокодек: MP3
Битрейт аудио: 128 Кбит/с
General
Complete name : E:\Фильмы и сериалы\Папины дочки. Суперневесты\377.avi
Format : AVI
Format/Info : Audio Video Interleave
File size : 283 MiB
Duration : 24mn 13s
Overall bit rate : 1 633 Kbps
Writing library : VirtualDub build 32842/release

Video
ID : 0
Format : MPEG-4 Visual
Format profile : Advanced Simple@L5
Format settings, BVOP : 2
Format settings, QPel : No
Format settings, GMC : No warppoints
Format settings, Matrix : Default (MPEG)
Codec ID : XVID
Codec ID/Hint : XviD
Duration : 24mn 13s
Bit rate : 1 495 Kbps
Width : 704 pixels
Height : 368 pixels
Display aspect ratio : 1.913
Frame rate : 25.000 fps
Color space : YUV
Chroma subsampling : 4:2:0
Bit depth : 8 bits
Scan type : Progressive
Compression mode : Lossy
Bits/(Pixel*Frame) : 0.231
Stream size : 259 MiB (92%)
Writing library : XviD 64

Audio
ID : 1
Format : MPEG Audio
Format version : Version 1
Format profile : Layer 3
Mode : Joint stereo
Mode extension : MS Stereo
Codec ID : 55
Codec ID/Hint : MP3
Duration : 24mn 13s
Bit rate mode : Constant
Bit rate : 128 Kbps
Channel(s) : 2 channels
Sampling rate : 48.0 KHz
Compression mode : Lossy
Stream size : 22.2 MiB (8%)
Alignment : Split accross interleaves
Interleave, duration : 40 ms (1.00 video frame)
Interleave, preload duration : 500 ms
Описание: Олигарх живет в бане Васнецовых, а Папа постоянно решает его психологические проблемы. На этот раз Олигарх переживает, что с ним все соглашаются. Мама замечает, что Пуговка становится похожей на Олигарха. Галина Сергеевна возвращается в науку и оказывается на кафедре у Бабушки, лишая Бабушку работы. В результате все проблемы решает Олигарх.

Продолжительность: 00:24:10

Видеокодек: Xvid
Битрейт видео: ~1494 kbps
Размер кадра: 704x368
Качество видео: SATRip
Аудиокодек: MP3
Битрейт аудио: 128 Кбит/с
General
Complete name : E:\Фильмы и сериалы\Папины дочки. Суперневесты\378.avi
Format : AVI
Format/Info : Audio Video Interleave
File size : 282 MiB
Duration : 24mn 10s
Overall bit rate : 1 633 Kbps
Writing library : VirtualDub build 32842/release

Video
ID : 0
Format : MPEG-4 Visual
Format profile : Advanced Simple@L5
Format settings, BVOP : 2
Format settings, QPel : No
Format settings, GMC : No warppoints
Format settings, Matrix : Default (MPEG)
Codec ID : XVID
Codec ID/Hint : XviD
Duration : 24mn 10s
Bit rate : 1 495 Kbps
Width : 704 pixels
Height : 368 pixels
Display aspect ratio : 1.913
Frame rate : 25.000 fps
Color space : YUV
Chroma subsampling : 4:2:0
Bit depth : 8 bits
Scan type : Progressive
Compression mode : Lossy
Bits/(Pixel*Frame) : 0.231
Stream size : 259 MiB (92%)
Writing library : XviD 64

Audio
ID : 1
Format : MPEG Audio
Format version : Version 1
Format profile : Layer 3
Mode : Joint stereo
Mode extension : MS Stereo
Codec ID : 55
Codec ID/Hint : MP3
Duration : 24mn 10s
Bit rate mode : Constant
Bit rate : 128 Kbps
Channel(s) : 2 channels
Sampling rate : 48.0 KHz
Compression mode : Lossy
Stream size : 22.1 MiB (8%)
Alignment : Split accross interleaves
Interleave, duration : 40 ms (1.00 video frame)
Interleave, preload duration : 500 ms
Описание: Галина Сергеевна встречает Иржи. Семья проводит тихий семейный вечер за игрой в «Монополию», в которой также принимает участие Олигарх.

Продолжительность: 00:23:27

Видеокодек: Xvid
Битрейт видео: ~1494 kbps
Размер кадра: 704x368
Качество видео: SATRip
Аудиокодек: MP3
Битрейт аудио: 128 Кбит/с
General
Complete name : E:\Фильмы и сериалы\Папины дочки. Суперневесты\379.avi
Format : AVI
Format/Info : Audio Video Interleave
File size : 274 MiB
Duration : 23mn 27s
Overall bit rate : 1 633 Kbps
Writing library : VirtualDub build 32842/release

Video
ID : 0
Format : MPEG-4 Visual
Format profile : Advanced Simple@L5
Format settings, BVOP : 2
Format settings, QPel : No
Format settings, GMC : No warppoints
Format settings, Matrix : Default (MPEG)
Codec ID : XVID
Codec ID/Hint : XviD
Duration : 23mn 27s
Bit rate : 1 495 Kbps
Width : 704 pixels
Height : 368 pixels
Display aspect ratio : 1.913
Frame rate : 25.000 fps
Color space : YUV
Chroma subsampling : 4:2:0
Bit depth : 8 bits
Scan type : Progressive
Compression mode : Lossy
Bits/(Pixel*Frame) : 0.231
Stream size : 251 MiB (92%)
Writing library : XviD 64

Audio
ID : 1
Format : MPEG Audio
Format version : Version 1
Format profile : Layer 3
Mode : Joint stereo
Mode extension : MS Stereo
Codec ID : 55
Codec ID/Hint : MP3
Duration : 23mn 27s
Bit rate mode : Constant
Bit rate : 128 Kbps
Channel(s) : 2 channels
Sampling rate : 48.0 KHz
Compression mode : Lossy
Stream size : 21.5 MiB (8%)
Alignment : Split accross interleaves
Interleave, duration : 40 ms (1.00 video frame)
Interleave, preload duration : 500 ms
Описание: Маша пытается научить Галину Сергеевну тому, как заводить знакомства с парнями. Даша готовит для Веника романтический ужин. Мама тоже хочет продемонстрировать зятю свои кулинарные таланты. А Папе ничего не остается, как страдать от голода

Продолжительность: 00:23:21

Видеокодек: Xvid
Битрейт видео: ~1494 kbps
Размер кадра: 704x368
Качество видео: SATRip
Аудиокодек: MP3
Битрейт аудио: 128 Кбит/с
General
Complete name : E:\Фильмы и сериалы\Папины дочки. Суперневесты\380.avi
Format : AVI
Format/Info : Audio Video Interleave
File size : 273 MiB
Duration : 23mn 21s
Overall bit rate : 1 633 Kbps
Writing library : VirtualDub build 32842/release

Video
ID : 0
Format : MPEG-4 Visual
Format profile : Advanced Simple@L5
Format settings, BVOP : 2
Format settings, QPel : No
Format settings, GMC : No warppoints
Format settings, Matrix : Default (MPEG)
Codec ID : XVID
Codec ID/Hint : XviD
Duration : 23mn 21s
Bit rate : 1 495 Kbps
Width : 704 pixels
Height : 368 pixels
Display aspect ratio : 1.913
Frame rate : 25.000 fps
Color space : YUV
Chroma subsampling : 4:2:0
Bit depth : 8 bits
Scan type : Progressive
Compression mode : Lossy
Bits/(Pixel*Frame) : 0.231
Stream size : 250 MiB (92%)
Writing library : XviD 64

Audio
ID : 1
Format : MPEG Audio
Format version : Version 1
Format profile : Layer 3
Mode : Joint stereo
Mode extension : MS Stereo
Codec ID : 55
Codec ID/Hint : MP3
Duration : 23mn 21s
Bit rate mode : Constant
Bit rate : 128 Kbps
Channel(s) : 2 channels
Sampling rate : 48.0 KHz
Compression mode : Lossy
Stream size : 21.4 MiB (8%)
Alignment : Split accross interleaves
Interleave, duration : 40 ms (1.00 video frame)
Interleave, preload duration : 500 ms
Описание: Галина Сергеевна учится врать под руководством Даши. В результате им обеим приходится отправиться в Российскую государственную библиотеку. Мама начинает переживать за Галину Сергеевну, ведь та стала рассеянной и почти ничего не ест. Олигарх вместе с Женей, Машей и Пуговкой озеленяет участок Васнецовых

Продолжительность: 00:23:47

Видеокодек: Xvid
Битрейт видео: ~1494 kbps
Размер кадра: 704x368
Качество видео: SATRip
Аудиокодек: MP3
Битрейт аудио: 128 Кбит/с
General
Complete name : E:\Фильмы и сериалы\Папины дочки. Суперневесты\381.avi
Format : AVI
Format/Info : Audio Video Interleave
File size : 278 MiB
Duration : 23mn 47s
Overall bit rate : 1 633 Kbps
Writing library : VirtualDub build 32842/release

Video
ID : 0
Format : MPEG-4 Visual
Format profile : Advanced Simple@L5
Format settings, BVOP : 2
Format settings, QPel : No
Format settings, GMC : No warppoints
Format settings, Matrix : Default (MPEG)
Codec ID : XVID
Codec ID/Hint : XviD
Duration : 23mn 47s
Bit rate : 1 495 Kbps
Width : 704 pixels
Height : 368 pixels
Display aspect ratio : 1.913
Frame rate : 25.000 fps
Color space : YUV
Chroma subsampling : 4:2:0
Bit depth : 8 bits
Scan type : Progressive
Compression mode : Lossy
Bits/(Pixel*Frame) : 0.231
Stream size : 254 MiB (92%)
Writing library : XviD 64

Audio
ID : 1
Format : MPEG Audio
Format version : Version 1
Format profile : Layer 3
Mode : Joint stereo
Mode extension : MS Stereo
Codec ID : 55
Codec ID/Hint : MP3
Duration : 23mn 47s
Bit rate mode : Constant
Bit rate : 128 Kbps
Channel(s) : 2 channels
Sampling rate : 48.0 KHz
Compression mode : Lossy
Stream size : 21.8 MiB (8%)
Alignment : Split accross interleaves
Interleave, duration : 40 ms (1.00 video frame)
Interleave, preload duration : 500 ms
Описание: Накануне празднования новоселья к Венику приезжает мать. Она сразу дает сыну деньги, чтобы он наконец смог снять квартиру и переехать туда вместе с Дашей. Теперь Даше предстоит как-то сказать о своих планах родителям. То же необходимо сделать и Маше, которая твердо решила съезжать. Между тем Галина Сергеевна устраивает для матери Веника экскурсию по Москве. Пуговка, Женя и Олигарх готовят сюрприз к торжеству по случаю новоселья.

Продолжительность: 00:24:05

Видеокодек: Xvid
Битрейт видео: ~1490 kbps
Размер кадра: 704x368
Качество видео: SATRip
Аудиокодек: MP3
Битрейт аудио: 128 Кбит/с
General
Complete name : E:\Фильмы и сериалы\Папины дочки. Суперневесты\382.avi
Format : AVI
Format/Info : Audio Video Interleave
File size : 281 MiB
Duration : 24mn 5s
Overall bit rate : 1 628 Kbps
Writing library : VirtualDub build 32842/release

Video
ID : 0
Format : MPEG-4 Visual
Format profile : Advanced Simple@L5
Format settings, BVOP : 2
Format settings, QPel : No
Format settings, GMC : No warppoints
Format settings, Matrix : Default (MPEG)
Codec ID : XVID
Codec ID/Hint : XviD
Duration : 24mn 5s
Bit rate : 1 491 Kbps
Width : 704 pixels
Height : 368 pixels
Display aspect ratio : 1.913
Frame rate : 25.000 fps
Color space : YUV
Chroma subsampling : 4:2:0
Bit depth : 8 bits
Scan type : Progressive
Compression mode : Lossy
Bits/(Pixel*Frame) : 0.230
Stream size : 257 MiB (92%)
Writing library : XviD 64

Audio
ID : 1
Format : MPEG Audio
Format version : Version 1
Format profile : Layer 3
Mode : Joint stereo
Mode extension : MS Stereo
Codec ID : 55
Codec ID/Hint : MP3
Duration : 24mn 5s
Bit rate mode : Constant
Bit rate : 128 Kbps
Channel(s) : 2 channels
Sampling rate : 48.0 KHz
Compression mode : Lossy
Stream size : 22.1 MiB (8%)
Alignment : Split accross interleaves
Interleave, duration : 40 ms (1.00 video frame)
Interleave, preload duration : 500 ms
Описание: Галина Сергеевна готовится к возвращению Принца. Чтобы купить платье и косметику, ей очень нужны деньги. Где их взять? Втайне от Папы она вновь начинает работать на Олигарха, а Олигарх тем временем завершает трудотерапию под руководством Папы, и Папа лишается заработка. Мама возвращает Папе уверенность в себе с помощью ссоры Веника и Даши. Маша и Женя делят между собой старую папину машину, а Пуговка «хранит» секрет Даши.

Продолжительность: 00:24:16

Видеокодек: Xvid
Битрейт видео: ~1500 kbps
Размер кадра: 704x368
Качество видео: SATRip
Аудиокодек: MP3
Битрейт аудио: 128 Кбит/с

General
Complete name : E:\Фильмы и сериалы\Папины дочки. Суперневесты (2012)\383.avi
Format : AVI
Format/Info : Audio Video Interleave
File size : 284 MiB
Duration : 24mn 16s
Overall bit rate : 1 633 Kbps
Writing library : VirtualDub build 32842/release

Video
ID : 0
Format : MPEG-4 Visual
Format profile : Advanced Simple@L5
Format settings, BVOP : 2
Format settings, QPel : No
Format settings, GMC : No warppoints
Format settings, Matrix : Default (MPEG)
Codec ID : XVID
Codec ID/Hint : XviD
Duration : 24mn 16s
Bit rate : 1 495 Kbps
Width : 704 pixels
Height : 368 pixels
Display aspect ratio : 1.913
Frame rate : 25.000 fps
Color space : YUV
Chroma subsampling : 4:2:0
Bit depth : 8 bits
Scan type : Progressive
Compression mode : Lossy
Bits/(Pixel*Frame) : 0.231
Stream size : 260 MiB (92%)
Writing library : XviD 64

Audio
ID : 1
Format : MPEG Audio
Format version : Version 1
Format profile : Layer 3
Mode : Joint stereo
Mode extension : MS Stereo
Codec ID : 55
Codec ID/Hint : MP3
Duration : 24mn 16s
Bit rate mode : Constant
Bit rate : 128 Kbps
Channel(s) : 2 channels
Sampling rate : 48.0 KHz
Compression mode : Lossy
Stream size : 22.2 MiB (8%)
Alignment : Split accross interleaves
Interleave, duration : 40 ms (1.00 video frame)
Interleave, preload duration : 500 ms
Описание: Галина Сергеевна вынуждена познакомить Иржи со своим братом Ильей. Женя учит Машу танцевать чечетку, Веник с Пуговкой сооружают будку, а Даша пытается выспаться.

Продолжительность: 00:24:31

Видеокодек: Xvid
Битрейт видео: ~1500 kbps
Размер кадра: 704x368
Качество видео: SATRip
Аудиокодек: MP3
Битрейт аудио: 128 Кбит/с
General
Complete name : E:\Фильмы и сериалы\Папины дочки. Суперневесты (2012)\384.avi
Format : AVI
Format/Info : Audio Video Interleave
File size : 285 MiB
Duration : 24mn 21s
Overall bit rate : 1 635 Kbps
Writing library : VirtualDub build 32842/release

Video
ID : 0
Format : MPEG-4 Visual
Format profile : Advanced Simple@L5
Format settings, BVOP : 2
Format settings, QPel : No
Format settings, GMC : No warppoints
Format settings, Matrix : Default (MPEG)
Codec ID : XVID
Codec ID/Hint : XviD
Duration : 24mn 21s
Bit rate : 1 497 Kbps
Width : 704 pixels
Height : 368 pixels
Display aspect ratio : 1.913
Frame rate : 25.000 fps
Color space : YUV
Chroma subsampling : 4:2:0
Bit depth : 8 bits
Scan type : Progressive
Compression mode : Lossy
Bits/(Pixel*Frame) : 0.231
Stream size : 261 MiB (92%)
Writing library : XviD 64

Audio
ID : 1
Format : MPEG Audio
Format version : Version 1
Format profile : Layer 3
Mode : Joint stereo
Mode extension : MS Stereo
Codec ID : 55
Codec ID/Hint : MP3
Duration : 24mn 21s
Bit rate mode : Constant
Bit rate : 128 Kbps
Channel(s) : 2 channels
Sampling rate : 48.0 KHz
Compression mode : Lossy
Stream size : 22.3 MiB (8%)
Alignment : Split accross interleaves
Interleave, duration : 40 ms (1.00 video frame)
Interleave, preload duration : 500 ms
Описание: Сказка Галины Сергеевны продолжается. Вместе с Иржи она посещает Венский бал

Продолжительность: 00:24:15

Видеокодек: Xvid
Битрейт видео: ~1499 kbps
Размер кадра: 704x368
Качество видео: SATRip
Аудиокодек: MP3
Битрейт аудио: 128 Кбит/с
General
Complete name : E:\Фильмы и сериалы\Папины дочки. Суперневесты (2012)\385.avi
Format : AVI
Format/Info : Audio Video Interleave
File size : 284 MiB
Duration : 24mn 15s
Overall bit rate : 1 638 Kbps
Writing library : VirtualDub build 32842/release

Video
ID : 0
Format : MPEG-4 Visual
Format profile : Advanced Simple@L5
Format settings, BVOP : 2
Format settings, QPel : No
Format settings, GMC : No warppoints
Format settings, Matrix : Default (MPEG)
Codec ID : XVID
Codec ID/Hint : XviD
Duration : 24mn 15s
Bit rate : 1 500 Kbps
Width : 704 pixels
Height : 368 pixels
Display aspect ratio : 1.913
Frame rate : 25.000 fps
Color space : YUV
Chroma subsampling : 4:2:0
Bit depth : 8 bits
Scan type : Progressive
Compression mode : Lossy
Bits/(Pixel*Frame) : 0.232
Stream size : 260 MiB (92%)
Writing library : XviD 64

Audio
ID : 1
Format : MPEG Audio
Format version : Version 1
Format profile : Layer 3
Mode : Joint stereo
Mode extension : MS Stereo
Codec ID : 55
Codec ID/Hint : MP3
Duration : 24mn 15s
Bit rate mode : Constant
Bit rate : 128 Kbps
Channel(s) : 2 channels
Sampling rate : 48.0 KHz
Compression mode : Lossy
Stream size : 22.2 MiB (8%)
Alignment : Split accross interleaves
Interleave, duration : 40 ms (1.00 video frame)
Interleave, preload duration : 500 ms
Описание: Галина Сергеевна знакомит Принца с родителями Ильи, выдавая их за своих, а они не могут понять, что вообще происходит. Находясь у Бабушки, Пуговка обучается хорошим манерам.

Продолжительность: 00:24:15

Видеокодек: Xvid
Битрейт видео: ~1495 kbps
Размер кадра: 704x368
Качество видео: SATRip
Аудиокодек: MP3
Битрейт аудио: 128 Кбит/с
General
Complete name : E:\Фильмы и сериалы\Папины дочки. Суперневесты (2012)\386.avi
Format : AVI
Format/Info : Audio Video Interleave
File size : 286 MiB
Duration : 24mn 28s
Overall bit rate : 1 633 Kbps
Writing library : VirtualDub build 32842/release

Video
ID : 0
Format : MPEG-4 Visual
Format profile : Advanced Simple@L5
Format settings, BVOP : 2
Format settings, QPel : No
Format settings, GMC : No warppoints
Format settings, Matrix : Default (MPEG)
Codec ID : XVID
Codec ID/Hint : XviD
Duration : 24mn 28s
Bit rate : 1 495 Kbps
Width : 704 pixels
Height : 368 pixels
Display aspect ratio : 1.913
Frame rate : 25.000 fps
Color space : YUV
Chroma subsampling : 4:2:0
Bit depth : 8 bits
Scan type : Progressive
Compression mode : Lossy
Bits/(Pixel*Frame) : 0.231
Stream size : 262 MiB (92%)
Writing library : XviD 64

Audio
ID : 1
Format : MPEG Audio
Format version : Version 1
Format profile : Layer 3
Mode : Joint stereo
Mode extension : MS Stereo
Codec ID : 55
Codec ID/Hint : MP3
Duration : 24mn 28s
Bit rate mode : Constant
Bit rate : 128 Kbps
Channel(s) : 2 channels
Sampling rate : 48.0 KHz
Compression mode : Lossy
Stream size : 22.4 MiB (8%)
Alignment : Split accross interleaves
Interleave, duration : 40 ms (1.00 video frame)
Interleave, preload duration : 500 ms
Описание: Женская половина семьи Васнецовых очарована семейным доктором. Папа ревнует и пытается дискредитировать доктора в глазах домашних. Маша хочет завоевать внимание доктора, используя Женю

Продолжительность: 00:29:59

Видеокодек: Xvid
Битрейт видео: ~1495 kbps
Размер кадра: 704x368
Качество видео: SATRip
Аудиокодек: MP3
Битрейт аудио: 128 Кбит/с
General
Complete name : D:\Фильмы и сериалы\Папины дочки. Суперневесты

(2012)\387.avi
Format : AVI
Format/Info : Audio Video Interleave
File size : 280 MiB
Duration : 23mn 59s
Overall bit rate : 1 633 Kbps
Writing library : VirtualDub build 32842/release

Video
ID : 0
Format : MPEG-4 Visual
Format profile : Advanced Simple@L5
Format settings, BVOP : 2
Format settings, QPel : No
Format settings, GMC : No warppoints
Format settings, Matrix : Default (MPEG)
Codec ID : XVID
Codec ID/Hint : XviD
Duration : 23mn 59s
Bit rate : 1 495 Kbps
Width : 704 pixels
Height : 368 pixels
Display aspect ratio : 1.913
Frame rate : 25.000 fps
Color space : YUV
Chroma subsampling : 4:2:0
Bit depth : 8 bits
Scan type : Progressive
Compression mode : Lossy
Bits/(Pixel*Frame) : 0.231
Stream size : 257 MiB (92%)
Writing library : XviD 64

Audio
ID : 1
Format : MPEG Audio
Format version : Version 1
Format profile : Layer 3
Mode : Joint stereo
Mode extension : MS Stereo
Codec ID : 55
Codec ID/Hint : MP3
Duration : 23mn 59s
Bit rate mode : Constant
Bit rate : 128 Kbps
Channel(s) : 2 channels
Sampling rate : 48.0 KHz
Compression mode : Lossy
Stream size : 22.0 MiB (8%)
Alignment : Split accross interleaves
Interleave, duration : 40 ms (1.00 video frame)
Interleave, preload duration : 500 ms
Описание: Даша и мама готовятся ко дню рождения Сони. Веник придумывает «выгуливатель» для собак. Маша хочет спасти Юру от навязчивой поклонницы. Женя помогает ей в этой авантюре.

Продолжительность: 00:23:16

Видеокодек: Xvid
Битрейт видео: ~1495 kbps
Размер кадра: 704x368
Качество видео: SATRip
Аудиокодек: MP3
Битрейт аудио: 128 Кбит/с
General
Complete name : D:\Фильмы и сериалы\Папины дочки. Суперневесты (2012)\388.avi
Format : AVI
Format/Info : Audio Video Interleave
File size : 272 MiB
Duration : 23mn 16s
Overall bit rate : 1 633 Kbps
Writing library : VirtualDub build 32842/release

Video
ID : 0
Format : MPEG-4 Visual
Format profile : Advanced Simple@L5
Format settings, BVOP : 2
Format settings, QPel : No
Format settings, GMC : No warppoints
Format settings, Matrix : Default (MPEG)
Codec ID : XVID
Codec ID/Hint : XviD
Duration : 23mn 16s
Bit rate : 1 495 Kbps
Width : 704 pixels
Height : 368 pixels
Display aspect ratio : 1.913
Frame rate : 25.000 fps
Color space : YUV
Chroma subsampling : 4:2:0
Bit depth : 8 bits
Scan type : Progressive
Compression mode : Lossy
Bits/(Pixel*Frame) : 0.231
Stream size : 249 MiB (92%)
Writing library : XviD 64

Audio
ID : 1
Format : MPEG Audio
Format version : Version 1
Format profile : Layer 3
Mode : Joint stereo
Mode extension : MS Stereo
Codec ID : 55
Codec ID/Hint : MP3
Duration : 23mn 16s
Bit rate mode : Constant
Bit rate : 128 Kbps
Channel(s) : 2 channels
Sampling rate : 48.0 KHz
Compression mode : Lossy
Stream size : 21.3 MiB (8%)
Alignment : Split accross interleaves
Interleave, duration : 40 ms (1.00 video frame)
Interleave, preload duration : 500 ms
Описание: Иржи приглашает Галину Сергеевну на Венский бал. На балу появляется вездесущий Олигарх. Маша придумывает план, как очаровать Юру. Пуговка попадает на настоящее полицейское дежурство.

Продолжительность: 00:24:10

Видеокодек: Xvid
Битрейт видео: ~1495 kbps
Размер кадра: 704x368
Качество видео: SATRip
Аудиокодек: MP3
Битрейт аудио: 128 Кбит/с
General
Complete name : D:\Фильмы и сериалы\Папины дочки. Суперневесты (2012)\389.avi
Format : AVI
Format/Info : Audio Video Interleave
File size : 282 MiB
Duration : 24mn 10s
Overall bit rate : 1 629 Kbps
Writing library : VirtualDub build 32842/release

Video
ID : 0
Format : MPEG-4 Visual
Format profile : Advanced Simple@L5
Format settings, BVOP : 2
Format settings, QPel : No
Format settings, GMC : No warppoints
Format settings, Matrix : Default (MPEG)
Codec ID : XVID
Codec ID/Hint : XviD
Duration : 24mn 10s
Bit rate : 1 492 Kbps
Width : 704 pixels
Height : 368 pixels
Display aspect ratio : 1.913
Frame rate : 25.000 fps
Color space : YUV
Chroma subsampling : 4:2:0
Bit depth : 8 bits
Scan type : Progressive
Compression mode : Lossy
Bits/(Pixel*Frame) : 0.230
Stream size : 258 MiB (92%)
Writing library : XviD 64

Audio
ID : 1
Format : MPEG Audio
Format version : Version 1
Format profile : Layer 3
Mode : Joint stereo
Mode extension : MS Stereo
Codec ID : 55
Codec ID/Hint : MP3
Duration : 24mn 10s
Bit rate mode : Constant
Bit rate : 128 Kbps
Channel(s) : 2 channels
Sampling rate : 48.0 KHz
Compression mode : Lossy
Stream size : 22.1 MiB (8%)
Alignment : Split accross interleaves
Interleave, duration : 40 ms (1.00 video frame)
Interleave, preload duration : 500 ms
Описание: Галина Сергеевна решается представить Иржи семье. Даша придумывает план знакомства Иржи с родителями. Маша пытается произвести впечатление на Юру. Женя приглашает Юру в театр.

Продолжительность: 00:23:22

Видеокодек: Xvid
Битрейт видео: ~1495 kbps
Размер кадра: 704x368
Качество видео: SATRip
Аудиокодек: MP3
Битрейт аудио: 128 Кбит/с
General
Complete name : D:\Фильмы и сериалы\Папины дочки. Суперневесты (2012)\390.avi
Format : AVI
Format/Info : Audio Video Interleave
File size : 273 MiB
Duration : 23mn 21s
Overall bit rate : 1 633 Kbps
Writing library : VirtualDub build 32842/release

Video
ID : 0
Format : MPEG-4 Visual
Format profile : Advanced Simple@L5
Format settings, BVOP : 2
Format settings, QPel : No
Format settings, GMC : No warppoints
Format settings, Matrix : Default (MPEG)
Codec ID : XVID
Codec ID/Hint : XviD
Duration : 23mn 21s
Bit rate : 1 495 Kbps
Width : 704 pixels
Height : 368 pixels
Display aspect ratio : 1.913
Frame rate : 25.000 fps
Color space : YUV
Chroma subsampling : 4:2:0
Bit depth : 8 bits
Scan type : Progressive
Compression mode : Lossy
Bits/(Pixel*Frame) : 0.231
Stream size : 250 MiB (92%)
Writing library : XviD 64

Audio
ID : 1
Format : MPEG Audio
Format version : Version 1
Format profile : Layer 3
Mode : Joint stereo
Mode extension : MS Stereo
Codec ID : 55
Codec ID/Hint : MP3
Duration : 23mn 21s
Bit rate mode : Constant
Bit rate : 128 Kbps
Channel(s) : 2 channels
Sampling rate : 48.0 KHz
Compression mode : Lossy
Stream size : 21.4 MiB (8%)
Alignment : Split accross interleaves
Interleave, duration : 40 ms (1.00 video frame)
Interleave, preload duration : 500 ms
Описание: Жене нравится Юра, но она пытается скрыть свои чувства от самой себя… и от Маши. Папа выдаёт себя за стоматолога и «лечит» Олигарха. Галина Сергеевна придумывает способ общаться с Иржи при маме. Правда, исключительно на немецком…

Продолжительность: 00:23:23

Видеокодек: Xvid
Битрейт видео: ~1500 kbps
Размер кадра: 704x368
Качество видео: SATRip
Аудиокодек: MP3
Битрейт аудио: 128 Кбит/с
General
Complete name : D:\Фильмы и сериалы\Папины дочки. Суперневесты (2012)\391.avi
Format : AVI
Format/Info : Audio Video Interleave
File size : 273 MiB
Duration : 23mn 23s
Overall bit rate : 1 633 Kbps
Writing library : VirtualDub build 32842/release

Video
ID : 0
Format : MPEG-4 Visual
Format profile : Advanced Simple@L5
Format settings, BVOP : 2
Format settings, QPel : No
Format settings, GMC : No warppoints
Format settings, Matrix : Default (MPEG)
Codec ID : XVID
Codec ID/Hint : XviD
Duration : 23mn 23s
Bit rate : 1 495 Kbps
Width : 704 pixels
Height : 368 pixels
Display aspect ratio : 1.913
Frame rate : 25.000 fps
Color space : YUV
Chroma subsampling : 4:2:0
Bit depth : 8 bits
Scan type : Progressive
Compression mode : Lossy
Bits/(Pixel*Frame) : 0.231
Stream size : 250 MiB (92%)
Writing library : XviD 64

Audio
ID : 1
Format : MPEG Audio
Format version : Version 1
Format profile : Layer 3
Mode : Joint stereo
Mode extension : MS Stereo
Codec ID : 55
Codec ID/Hint : MP3
Duration : 23mn 23s
Bit rate mode : Constant
Bit rate : 128 Kbps
Channel(s) : 2 channels
Sampling rate : 48.0 KHz
Compression mode : Lossy
Stream size : 21.4 MiB (8%)
Alignment : Split accross interleaves
Interleave, duration : 40 ms (1.00 video frame)
Interleave, preload duration : 500 ms
Описание: Женя уезжает в Америку. Маша переживает, что очередная младшая сестра увела у неё парня. После разговора с мамой она решает переключить своё внимание на «учителя немецкого». Галине Сергеевне приходится открыть правду про Иржи. Папа размещает в Интернете рекламу своих услуг, но его принимают за киллера…

Продолжительность: 00:23:52

Видеокодек: Xvid
Битрейт видео: ~1495 kbps
Размер кадра: 704x368
Качество видео: SATRip
Аудиокодек: MP3
Битрейт аудио: 128 Кбит/с
General
Complete name : D:\Фильмы и сериалы\Папины дочки. Суперневесты (2012)\392.avi
Format : AVI
Format/Info : Audio Video Interleave
File size : 279 MiB
Duration : 23mn 51s
Overall bit rate : 1 633 Kbps
Writing library : VirtualDub build 32842/release

Video
ID : 0
Format : MPEG-4 Visual
Format profile : Advanced Simple@L5
Format settings, BVOP : 2
Format settings, QPel : No
Format settings, GMC : No warppoints
Format settings, Matrix : Default (MPEG)
Codec ID : XVID
Codec ID/Hint : XviD
Duration : 23mn 51s
Bit rate : 1 495 Kbps
Width : 704 pixels
Height : 368 pixels
Display aspect ratio : 1.913
Frame rate : 25.000 fps
Color space : YUV
Chroma subsampling : 4:2:0
Bit depth : 8 bits
Scan type : Progressive
Compression mode : Lossy
Bits/(Pixel*Frame) : 0.231
Stream size : 255 MiB (92%)
Writing library : XviD 64

Audio
ID : 1
Format : MPEG Audio
Format version : Version 1
Format profile : Layer 3
Mode : Joint stereo
Mode extension : MS Stereo
Codec ID : 55
Codec ID/Hint : MP3
Duration : 23mn 51s
Bit rate mode : Constant
Bit rate : 128 Kbps
Channel(s) : 2 channels
Sampling rate : 48.0 KHz
Compression mode : Lossy
Stream size : 21.8 MiB (8%)
Alignment : Split accross interleaves
Interleave, duration : 40 ms (1.00 video frame)
Interleave, preload duration : 500 ms
Описание: Маша снимается в телепередаче в роли воровки, но стыдится сказать об этом маме. В Лохово приезжает бдительная Жихарёва, чтобы вывести Машу на чистую воду. По ошибке ЗАГСа брак Даши и Веника признан недействительным. Веник готовит романтический сюрприз, но Даша по-своему трактует поведение «бывшего мужа»…

Продолжительность: 00:24:47

Видеокодек: Xvid
Битрейт видео: ~1495 kbps
Размер кадра: 704x368
Качество видео: SATRip
Аудиокодек: MP3
Битрейт аудио: 128 Кбит/с
General
Complete name : D:\Фильмы и сериалы\Папины дочки. Суперневесты (2012)\393.avi
Format : AVI
Format/Info : Audio Video Interleave
File size : 286 MiB
Duration : 24mn 26s
Overall bit rate : 1 638 Kbps
Writing library : VirtualDub build 32842/release

Video
ID : 0
Format : MPEG-4 Visual
Format profile : Advanced Simple@L5
Format settings, BVOP : 2
Format settings, QPel : No
Format settings, GMC : No warppoints
Format settings, Matrix : Default (MPEG)
Codec ID : XVID
Codec ID/Hint : XviD
Duration : 24mn 26s
Bit rate : 1 500 Kbps
Width : 704 pixels
Height : 368 pixels
Display aspect ratio : 1.913
Frame rate : 25.000 fps
Color space : YUV
Chroma subsampling : 4:2:0
Bit depth : 8 bits
Scan type : Progressive
Compression mode : Lossy
Bits/(Pixel*Frame) : 0.232
Stream size : 262 MiB (92%)
Writing library : XviD 64

Audio
ID : 1
Format : MPEG Audio
Format version : Version 1
Format profile : Layer 3
Mode : Joint stereo
Mode extension : MS Stereo
Codec ID : 55
Codec ID/Hint : MP3
Duration : 24mn 26s
Bit rate mode : Constant
Bit rate : 128 Kbps
Channel(s) : 2 channels
Sampling rate : 48.0 KHz
Compression mode : Lossy
Stream size : 22.4 MiB (8%)
Alignment : Split accross interleaves
Interleave, duration : 40 ms (1.00 video frame)
Interleave, preload duration : 500 ms
Описание: Галина Сергеевна говорит Иржи, что Илья — её брат. Мама помогает ей поддерживать эту легенду, а непосвящённый папа — наоборот. Новый режиссёр театра Рубинштейн предлагает Маше и её конкурентке стать лицом детского телевизионного шоу. За эту роль молодым актрисам приходится «помериться талантом».

Продолжительность: 00:23:51

Видеокодек: Xvid
Битрейт видео: ~1495 kbps
Размер кадра: 704x368
Качество видео: SATRip
Аудиокодек: MP3
Битрейт аудио: 128 Кбит/с
General
Complete name : D:\Фильмы и сериалы\Папины дочки. Суперневесты (2012)\394.avi
Format : AVI
Format/Info : Audio Video Interleave
File size : 278 MiB
Duration : 23mn 50s
Overall bit rate : 1 633 Kbps
Writing library : VirtualDub build 32842/release

Video
ID : 0
Format : MPEG-4 Visual
Format profile : Advanced Simple@L5
Format settings, BVOP : 2
Format settings, QPel : No
Format settings, GMC : No warppoints
Format settings, Matrix : Default (MPEG)
Codec ID : XVID
Codec ID/Hint : XviD
Duration : 23mn 50s
Bit rate : 1 495 Kbps
Width : 704 pixels
Height : 368 pixels
Display aspect ratio : 1.913
Frame rate : 25.000 fps
Color space : YUV
Chroma subsampling : 4:2:0
Bit depth : 8 bits
Scan type : Progressive
Compression mode : Lossy
Bits/(Pixel*Frame) : 0.231
Stream size : 255 MiB (92%)
Writing library : XviD 64

Audio
ID : 1
Format : MPEG Audio
Format version : Version 1
Format profile : Layer 3
Mode : Joint stereo
Mode extension : MS Stereo
Codec ID : 55
Codec ID/Hint : MP3
Duration : 23mn 50s
Bit rate mode : Constant
Bit rate : 128 Kbps
Channel(s) : 2 channels
Sampling rate : 48.0 KHz
Compression mode : Lossy
Stream size : 21.8 MiB (8%)
Alignment : Split accross interleaves
Interleave, duration : 40 ms (1.00 video frame)
Interleave, preload duration : 500 ms
Описание: Папа хочет освежить отношения с Мамой и по совету Маши решает для начала «освежить себя». Реакция Мамы оказывается неожиданной для него самого. Олигарх одержим желанием делать добрые дела. Он пытается «осчастливить» Дашу и Веника, устроив Сонечку в элитный детский садик. Но забывает им об этом сообщить…

Продолжительность: 00:24:18

Видеокодек: Xvid
Битрейт видео: ~1400 kbps
Размер кадра: 704x368
Качество видео: SATRip
Аудиокодек: MP3
Битрейт аудио: 128 Кбит/с
General
Complete name : D:\Фильмы и сериалы\Папины дочки. Суперневесты (2012)\395.avi
Format : AVI
Format/Info : Audio Video Interleave
File size : 284 MiB
Duration : 24mn 18s
Overall bit rate : 1 633 Kbps
Writing library : VirtualDub build 32842/release

Video
ID : 0
Format : MPEG-4 Visual
Format profile : Advanced Simple@L5
Format settings, BVOP : 2
Format settings, QPel : No
Format settings, GMC : No warppoints
Format settings, Matrix : Default (MPEG)
Codec ID : XVID
Codec ID/Hint : XviD
Duration : 24mn 18s
Bit rate : 1 495 Kbps
Width : 704 pixels
Height : 368 pixels
Display aspect ratio : 1.913
Frame rate : 25.000 fps
Color space : YUV
Chroma subsampling : 4:2:0
Bit depth : 8 bits
Scan type : Progressive
Compression mode : Lossy
Bits/(Pixel*Frame) : 0.231
Stream size : 260 MiB (92%)
Writing library : XviD 64

Audio
ID : 1
Format : MPEG Audio
Format version : Version 1
Format profile : Layer 3
Mode : Joint stereo
Mode extension : MS Stereo
Codec ID : 55
Codec ID/Hint : MP3
Duration : 24mn 18s
Bit rate mode : Constant
Bit rate : 128 Kbps
Channel(s) : 2 channels
Sampling rate : 48.0 KHz
Compression mode : Lossy
Stream size : 22.3 MiB (8%)
Alignment : Split accross interleaves
Interleave, duration : 40 ms (1.00 video frame)
Interleave, preload duration : 500 ms
Описание: Галина Сергеевна и Мама ищут способ сообщить Папе правду про Иржи и отправляют их вдвоём на рыбалку. В результате Папе приходится разбираться с рыбнадзором, а Галине Сергеевне — с Иржи. Маша продолжает переживать, что у неё нет парня. По совету Веника Даша ведёт старшую сестру в «клуб знакомств», где соперничает с ней за мужское внимание. Пуговка борется за верность Булкина.

Продолжительность: 00:23:53

Видеокодек: Xvid
Битрейт видео: ~1450 kbps
Размер кадра: 704x368
Качество видео: SATRip
Аудиокодек: MP3
Битрейт аудио: 128 Кбит/с
General
Complete name : D:\Фильмы и сериалы\Папины дочки. Суперневесты (2012)\396.avi
Format : AVI
Format/Info : Audio Video Interleave
File size : 279 MiB
Duration : 23mn 53s
Overall bit rate : 1 633 Kbps
Writing library : VirtualDub build 32842/release

Video
ID : 0
Format : MPEG-4 Visual
Format profile : Advanced Simple@L5
Format settings, BVOP : 2
Format settings, QPel : No
Format settings, GMC : No warppoints
Format settings, Matrix : Default (MPEG)
Codec ID : XVID
Codec ID/Hint : XviD
Duration : 23mn 53s
Bit rate : 1 495 Kbps
Width : 704 pixels
Height : 368 pixels
Display aspect ratio : 1.913
Frame rate : 25.000 fps
Color space : YUV
Chroma subsampling : 4:2:0
Bit depth : 8 bits
Scan type : Progressive
Compression mode : Lossy
Bits/(Pixel*Frame) : 0.231
Stream size : 256 MiB (92%)
Writing library : XviD 64

Audio
ID : 1
Format : MPEG Audio
Format version : Version 1
Format profile : Layer 3
Mode : Joint stereo
Mode extension : MS Stereo
Codec ID : 55
Codec ID/Hint : MP3
Duration : 23mn 53s
Bit rate mode : Constant
Bit rate : 128 Kbps
Channel(s) : 2 channels
Sampling rate : 48.0 KHz
Compression mode : Lossy
Stream size : 21.9 MiB (8%)
Alignment : Split accross interleaves
Interleave, duration : 40 ms (1.00 video frame)
Interleave, preload duration : 500 ms
Описание: Галина Сергеевна и Мама ищут способ сообщить Папе правду про Иржи и отправляют их вдвоём на рыбалку. В результате Папе приходится разбираться с рыбнадзором, а Галине Сергеевне — с Иржи. Маша продолжает переживать, что у неё нет парня. По совету Веника Даша ведёт старшую сестру в «клуб знакомств», где соперничает с ней за мужское внимание. Пуговка борется за верность Булкина.

Продолжительность: 00:23:53

Видеокодек: Xvid
Битрейт видео: ~1450 kbps
Размер кадра: 704x368
Качество видео: SATRip
Аудиокодек: MP3
Битрейт аудио: 128 Кбит/с
General
Complete name : D:\Фильмы и сериалы\Папины дочки. Суперневесты (2012)\397.avi
Format : AVI
Format/Info : Audio Video Interleave
File size : 283 MiB
Duration : 24mn 13s
Overall bit rate : 1 633 Kbps
Writing library : VirtualDub build 32842/release

Video
ID : 0
Format : MPEG-4 Visual
Format profile : Advanced Simple@L5
Format settings, BVOP : 2
Format settings, QPel : No
Format settings, GMC : No warppoints
Format settings, Matrix : Default (MPEG)
Codec ID : XVID
Codec ID/Hint : XviD
Duration : 24mn 13s
Bit rate : 1 495 Kbps
Width : 704 pixels
Height : 368 pixels
Display aspect ratio : 1.913
Frame rate : 25.000 fps
Color space : YUV
Chroma subsampling : 4:2:0
Bit depth : 8 bits
Scan type : Progressive
Compression mode : Lossy
Bits/(Pixel*Frame) : 0.231
Stream size : 259 MiB (92%)
Writing library : XviD 64

Audio
ID : 1
Format : MPEG Audio
Format version : Version 1
Format profile : Layer 3
Mode : Joint stereo
Mode extension : MS Stereo
Codec ID : 55
Codec ID/Hint : MP3
Duration : 24mn 13s
Bit rate mode : Constant
Bit rate : 128 Kbps
Channel(s) : 2 channels
Sampling rate : 48.0 KHz
Compression mode : Lossy
Stream size : 22.2 MiB (8%)
Alignment : Split accross interleaves
Interleave, duration : 40 ms (1.00 video frame)
Interleave, preload duration : 500 ms
Описание: Галина Сергеевна старается забыть Иржи. Пуговка находит способ её отвлечь, естественно с пользой для себя. На съёмках сериала Маша завязывает знакомство со сценаристом. Он принимает активное участие в её судьбе и в судьбе её героини… Даша и Веник создают от имени Папы сайт психологической помощи. Но в итоге их клиентом становится сам Папа!

Продолжительность: 00:23:55

Видеокодек: Xvid
Битрейт видео: ~1495 kbps
Размер кадра: 704x368
Качество видео: SATRip
Аудиокодек: MP3
Битрейт аудио: 128 Кбит/с
General
Complete name : D:\Фильмы и сериалы\Папины дочки. Суперневесты (2012)\398.avi
Format : AVI
Format/Info : Audio Video Interleave
File size : 279 MiB
Duration : 23mn 55s
Overall bit rate : 1 633 Kbps
Writing library : VirtualDub build 32842/release

Video
ID : 0
Format : MPEG-4 Visual
Format profile : Advanced Simple@L5
Format settings, BVOP : 2
Format settings, QPel : No
Format settings, GMC : No warppoints
Format settings, Matrix : Default (MPEG)
Codec ID : XVID
Codec ID/Hint : XviD
Duration : 23mn 55s
Bit rate : 1 495 Kbps
Width : 704 pixels
Height : 368 pixels
Display aspect ratio : 1.913
Frame rate : 25.000 fps
Color space : YUV
Chroma subsampling : 4:2:0
Bit depth : 8 bits
Scan type : Progressive
Compression mode : Lossy
Bits/(Pixel*Frame) : 0.231
Stream size : 256 MiB (92%)
Writing library : XviD 64

Audio
ID : 1
Format : MPEG Audio
Format version : Version 1
Format profile : Layer 3
Mode : Joint stereo
Mode extension : MS Stereo
Codec ID : 55
Codec ID/Hint : MP3
Duration : 23mn 55s
Bit rate mode : Constant
Bit rate : 128 Kbps
Channel(s) : 2 channels
Sampling rate : 48.0 KHz
Compression mode : Lossy
Stream size : 21.9 MiB (8%)
Alignment : Split accross interleaves
Interleave, duration : 40 ms (1.00 video frame)
Interleave, preload duration : 500 ms

Внимание! Раздача ведётся путём добавления новых серий; при каждом добавлении создётся новый торрент. Чтобы начать докачку новой серии, пользователям необходимо сделать следующее:
(1) остановить скачивание,
(2) удалить старый торрент у себя из клиента (старые серии удалять не надо),
(3) скачать новый торрент и запустить его у себя в клиенте вместо старого, при этом указать клиенту путь в старую папку куда и должно происходить скачивание новых серий.
Ваш клиент при этом должен произвести хеширование (проверку) старой папки (если не производит сам - помогите ему сделать это), и будет докачивать только те серии которых у вас ещё нет. Старые серии при этом не удаляются, а продолжают раздаваться!
Eсли вы уже удалили старые серии, то предотвратить повторную закачку старых серий можно, отжав галочку в соответсвующих местах при запуске нового торрента. По возможности, желательно не удалять старые серии как можно дольше чтобы релизёр не столько продолжал раздавать старые серии, а смог сконцентрироваться на новых.
Скриншоты:



Время раздачи: C 09:00 до 23:00 (UTC\GTM+2)
[NNM-Club.ru]_Papinyi dochki. Supernevestyi (2012).torrent
 Торрент: Платиновая раздача  Зарегистрирован
 
Скачать


 Зарегистрирован:   12 Дек 2012 14:37:37
 Размер:   7.64 GB  (
 Рейтинг:   4.2 (Голосов: 94)
 Поблагодарили:   335
 Проверка:   Оформление проверено модератором 12 Дек 2012 23:57:47
Как cкачать  ·  Как раздать  ·  Правильно оформить  ·  Поднять ратио!  

_________________
fanDYNAMO ®
Модератор Музыки
RG Music
Стаж: 11 лет 11 мес.
Сообщений: 4299
Ratio: 116.535
Раздал: 50.08 TB
Поблагодарили: 103063
100%
Откуда: Вільна країна!
ukraine.gif
Ув. модераторы - просьба оставить галочку "редактирование", так как новые серии выходят понедельник-четверг и чтоб я вас не дёргал по поводу открытия. Заранее спасибо! :)

_________________
fanDYNAMO ®
Модератор Музыки
RG Music
Стаж: 11 лет 11 мес.
Сообщений: 4299
Ratio: 116.535
Раздал: 50.08 TB
Поблагодарили: 103063
100%
Откуда: Вільна країна!
ukraine.gif
24.09.2012: Добавлена 383 серия! Просьба перекачать торрент файл!

_________________
fanDYNAMO ®
Модератор Музыки
RG Music
Стаж: 11 лет 11 мес.
Сообщений: 4299
Ratio: 116.535
Раздал: 50.08 TB
Поблагодарили: 103063
100%
Откуда: Вільна країна!
ukraine.gif
25.09.2012: Добавлена 384 серия! Просьба перекачать торрент файл!

_________________
Garryson
Сталкер
Uploader 200+
Стаж: 15 лет 9 мес.
Сообщений: 4997
Ratio: 736.788
Поблагодарили: 169426
100%
Откуда: DFO
Цитата:
15 Папины дочки. Суперневесты.jpg 60,245


убрать лишнее - только видеоряд!
fanDYNAMO ®
Модератор Музыки
RG Music
Стаж: 11 лет 11 мес.
Сообщений: 4299
Ratio: 116.535
Раздал: 50.08 TB
Поблагодарили: 103063
100%
Откуда: Вільна країна!
ukraine.gif
Понял, при следующем обновлении данный файлик будет убран

Добавлено спустя 3 часа 41 минуту 24 секунды:

26.09.2012: Добавлена 385 серия! Убран коврик с раздачи. Просьба перекачать торрент файл!

_________________
fanDYNAMO ®
Модератор Музыки
RG Music
Стаж: 11 лет 11 мес.
Сообщений: 4299
Ratio: 116.535
Раздал: 50.08 TB
Поблагодарили: 103063
100%
Откуда: Вільна країна!
ukraine.gif
27.09.2012: Добавлена 386 серия! Просьба перекачать торрент файл!

_________________
GBatS
Стаж: 13 лет 10 мес.
Сообщений: 29
Ratio: 0.315
Поблагодарили: 2
100%
встаньте на раздачу. плиз
fanDYNAMO ®
Модератор Музыки
RG Music
Стаж: 11 лет 11 мес.
Сообщений: 4299
Ratio: 116.535
Раздал: 50.08 TB
Поблагодарили: 103063
100%
Откуда: Вільна країна!
ukraine.gif
Так я на раздаче постоянно!

_________________
fanDYNAMO ®
Модератор Музыки
RG Music
Стаж: 11 лет 11 мес.
Сообщений: 4299
Ratio: 116.535
Раздал: 50.08 TB
Поблагодарили: 103063
100%
Откуда: Вільна країна!
ukraine.gif
21.11.2012: Добавлены 387-389 серии! Просьба перекачать торрент файл!

_________________
fanDYNAMO ®
Модератор Музыки
RG Music
Стаж: 11 лет 11 мес.
Сообщений: 4299
Ratio: 116.535
Раздал: 50.08 TB
Поблагодарили: 103063
100%
Откуда: Вільна країна!
ukraine.gif
22.11.2012: Добавлена 390 серия! Просьба перекачать торрент файл!

_________________
fanDYNAMO ®
Модератор Музыки
RG Music
Стаж: 11 лет 11 мес.
Сообщений: 4299
Ratio: 116.535
Раздал: 50.08 TB
Поблагодарили: 103063
100%
Откуда: Вільна країна!
ukraine.gif
26.11.2012: Добавлена 391 серия! Просьба перекачать торрент файл!

_________________
fanDYNAMO ®
Модератор Музыки
RG Music
Стаж: 11 лет 11 мес.
Сообщений: 4299
Ratio: 116.535
Раздал: 50.08 TB
Поблагодарили: 103063
100%
Откуда: Вільна країна!
ukraine.gif
26.11.2012: Добавлены 392-394 серии! Просьба перекачать торрент файл!

_________________
fanDYNAMO ®
Модератор Музыки
RG Music
Стаж: 11 лет 11 мес.
Сообщений: 4299
Ratio: 116.535
Раздал: 50.08 TB
Поблагодарили: 103063
100%
Откуда: Вільна країна!
ukraine.gif
12.12.2012: Добавлены 395-398 серии! Просьба перекачать торрент файл!

_________________
stan07
Стаж: 13 лет 4 мес.
Сообщений: 54
Ratio: 4.542
100%
ukraine.gif
Продолжение будет?
Показать сообщения:   
Начать новую тему   Ответить на тему    Торрент-трекер NNM-Club -> Отечественные сериалы Часовой пояс: GMT + 3
Страницы:  1, 2  След.
Страница 1 из 2