Классический форум-трекер
canvas not supported
Нас вместе: 4 172 647

Фантоцци берет реванш / Fantozzi alla riscossa (1990) DVDRip


 
 
RSS
Начать новую тему   Ответить на тему    Торрент-трекер NNM-Club -> Классика кино и Старые фильмы до 90-х -> Зарубежная Классика (HD*Rip/LQ, DVDRip, SATRip, VHSRip)
Автор Сообщение
SKVSM ®
Покровитель талантов
Uploader 100+
Стаж: 11 лет 2 мес.
Сообщений: 1124
Ratio: 375.348
Поблагодарили: 22420
100%
nnm-club.gif
Фантоцци берет реванш / Fantozzi alla riscossa (1990) DVDRip
Русское название: Фантоцци берет реванш
Оригинальное название: Fantozzi alla riscossa
Год выпуска: 1990
Жанр: Комедия
Выпущено: Италия

Описание фильма:
Фантоцци, всю жизнь работавшего бухгалтером, избирают мировым судьей. За свою честность он попадает в тюрьму, где берет уроки у господина Хулигана и становится одним из самых уважаемых и влиятельных людей. Но судьба опять уготовила ему злую шутку…

Режиссер: Нери Паренти
Актеры: Паоло Вилладжио, Милена Вукотич, Джиджи Редер, Анна Маццамауро, Плинио Фернандо, Пол Маллер

Продолжительность: 01:22:19
Перевод: Многоголосый закадровый
Субтитры: Нет



Видеокодек: Xvid
Битрейт видео: ~2176 Кбит/с
Размер кадра: 656x384
Качество видео: DVDRip
Аудиокодек: MP3
Битрейт аудио: MP3, 2 ch, 192 Кбит/с
Сэмпл: Ссылка
General
Complete name : F:\Fantocci.beret.revansh.1990.XviD.DVDRip.BestVideo.avi
Format : AVI
Format/Info : Audio Video Interleave
File size : 1.37 GiB
Duration : 1h 22mn
Overall bit rate : 2 377 Kbps
Writing application : FairUse Wizard - http://fairusewizard.com
Writing library : The best and REALLY easy backup tool

Video
ID : 0
Format : MPEG-4 Visual
Format profile : Advanced Simple@L5
Format settings, BVOP : 1
Format settings, QPel : No
Format settings, GMC : No warppoints
Format settings, Matrix : Default (MPEG)
Muxing mode : Packed bitstream
Codec ID : XVID
Codec ID/Hint : XviD
Duration : 1h 22mn
Bit rate : 2 176 Kbps
Width : 656 pixels
Height : 384 pixels
Display aspect ratio : 1.708
Frame rate : 25.000 fps
Color space : YUV
Chroma subsampling : 4:2:0
Bit depth : 8 bits
Scan type : Progressive
Compression mode : Lossy
Bits/(Pixel*Frame) : 0.346
Stream size : 1.25 GiB (92%)
Writing library : XviD 1.2.0.dev47 (UTC 2006-11-01)

Audio
ID : 1
Format : MPEG Audio
Format version : Version 1
Format profile : Layer 3
Mode : Joint stereo
Mode extension : MS Stereo
Codec ID : 55
Codec ID/Hint : MP3
Duration : 1h 22mn
Bit rate mode : Constant
Bit rate : 192 Kbps
Channel(s) : 2 channels
Sampling rate : 48.0 KHz
Compression mode : Lossy
Stream size : 113 MiB (8%)
Alignment : Aligned on interleaves
Interleave, duration : 40 ms (1.00 video frame)
Interleave, preload duration : 504 ms
Скриншоты:


Время раздачи: 24/7 - круглосуточно
[NNM-Club.ru]_Fantocci.beret.revansh.1990.XviD.DVDRip.BestVideo.avi.torrent
 Торрент: Платиновая раздача  Зарегистрирован
 
Скачать


Примагнититься
 Зарегистрирован:   26 Сен 2012 18:00:38
 Размер:   1.37 GB  (
 Рейтинг:   4.8 (Голосов: 55)
 Поблагодарили:   193
 Проверка:   Оформление проверено модератором 27 Сен 2012 09:42:20
Как cкачать  ·  Как раздать  ·  Правильно оформить  ·  Поднять ратио!  
SKVSM ®
Покровитель талантов
Uploader 100+
Стаж: 11 лет 2 мес.
Сообщений: 1124
Ratio: 375.348
Поблагодарили: 22420
100%
nnm-club.gif
Показать сообщения:   
Начать новую тему   Ответить на тему    Торрент-трекер NNM-Club -> Классика кино и Старые фильмы до 90-х -> Зарубежная Классика (HD*Rip/LQ, DVDRip, SATRip, VHSRip) Часовой пояс: GMT + 3
Страница 1 из 1