Классический форум-трекер
canvas not supported
Нас вместе: 4 211 002

Менталист / The Mentalist (2011-2012) BDRip [720p] (4 сезон) (Universal Russia)


 
 
RSS
Начать новую тему   Ответить на тему    Торрент-трекер NNM-Club -> Зарубежные сериалы -> Менталист / The Mentalist ; Теория Лжи / Lie To Me
Автор Сообщение
Acunterak ®
Стаж: 11 лет 8 мес.
Сообщений: 2
Ratio: 14.513
Поблагодарили: 126
100%
russia.gif
Менталист / The Mentalist (2011-2012) BDRip [720p] (4 сезон) (Universal Russia)
Русское название: Менталист
Оригинальное название: The Mentalist
Год выпуска: 2011-2012
Жанр: Детектив, Драма, Комедия

Перевод: Многоголосый закадровый, профессиональный
Язык: EN RU
Озвучка / Автор перевода: Universal Russian
Вид субтитров: Отсутствуют

www.imdb.com/title/tt1196946/
www.kinopoisk.ru/level/1/film/412344/

Дата мировой премьеры: 22.09.2011
Дата российской премьеры: 22.09.2011
Дата выхода DVD/Blu-Ray релиза: 31.10.2012

Режиссер: Чарльз Бисон, Эрик Лановилль, Джон Ф. Шоуолтер, Крис Лонг, Джон Полсон, Бобби Рот, Саймон Бейкер, Том Верика, Рэндалл Зиск, Элоди Кин, Роксанн Доусон, Гири МакЛеод, Бруно Хеллер, Дэвид фон Энкен, Гай Ферланд, Кевин Хукс
Актеры: Саймон Бэйкер, Робин Танни, Тим Кенг, Оуэн Йэмэн, Аманда Риетти

Описание фильма:
Главный герой — Патрик Джейн (Саймон Бейкер), превосходный психолог-практик и манипулятор, некогда притворявшийся «экстрасенсом» и «ясновидящим». Придерживаясь созданного им образа, сотрудничал со следствием в поимке серийного убийцы по имени Красный Джон. В выступлении на телевидении описал, как «ясновидящий», его психологический портрет: «Ущемлённый с детства, жалкий и одинокий». Возмущённый такой «ложью», как он сам выразился в своём послании, Красный Джон убил жену и дочь Патрика...
Теперь Джейн занимается тем, что помогает Калифорнийскому бюро расследований (КБР) в раскрытии различных тяжких преступлений (убийств). Он категорически отрицает, что магия существует, и доказывает, что всё, выдаваемое за магию, — это лишь ловкость рук и наблюдательность. Оказывая всемерную помощь Бюро, он продолжает жить также и надеждой поймать Красного Джона.

В названии почти каждого эпизода присутствует слова «красный», «кровавый» или иные слова, характеризующие оттенки красного, как бы ссылаясь на Красного Джона.


Продолжительность: 24 x ~00:41:00
Качество видео: BDRip
Сэмпл: Скачать

Видеокодек: MPEG-4 AVC/H.264
Битрейт видео: ~4930 Kbps
Размер кадра: 1280x720
Аудиокодек: AC3 2.0, AC3 5.1
Битрейт аудио: 192 Kbps, 384 Kbps

Общее
Уникальный идентификатор : 207316037306851900182443582714154998006 (0x9BF79DCDB51C17B8AC559F5B484E58F6)
Полное имя : D:\P2P\Downloads\Менталист 4 сезон\The Mentalist s04e01 Scarlet Ribbons (Алые ленты).mkv
Формат : Matroska
Версия формата : Version 2
Размер файла : 1,41 Гбайт
Продолжительность : 40 м.
Общий поток : 4930 Кбит/сек
Дата кодирования : UTC 2012-03-07 19:36:33
Программа кодирования : mkvmerge v5.2.1 ('A Far Off Place') built on Jan 2 2012 23:21:10
Библиотека кодирования : libebml v1.2.3 + libmatroska v1.3.0

Видео
Идентификатор : 1
Формат : AVC
Формат/Информация : Advanced Video Codec
Профиль формата : High@L3.1
Параметр CABAC формата : Нет
Параметр ReFrames формата : 2 кадра
Идентификатор кодека : V_MPEG4/ISO/AVC
Продолжительность : 40 м.
Битрейт : 4192 Кбит/сек
Ширина : 1276 пикселей
Высота : 720 пикселей
Соотношение сторон : 16:9
Соотношение сторон в оригинале : 16:9
Режим частоты кадров : Постоянный
Частота кадров : 25,000 кадров/сек
Цветовое пространство : YUV
Субдискретизация насыщенности : 4:2:0
Битовая глубина : 8 бит
Тип развёртки : Прогрессивная
Бит/(Пиксели*Кадры) : 0.183
Размер потока : 1,20 Гбайт (85%)
Default : Да
Forced : Нет
Основные цвета : BT.709
Характеристики трансфера : BT.709
Коэффициенты матрицы : BT.709

Аудио #1
Идентификатор : 2
Формат : AC-3
Формат/Информация : Audio Coding 3
Расширение режима : CM (complete main)
Параметр Endianness формата : Big
Идентификатор кодека : A_AC3
Продолжительность : 40 м.
Вид битрейта : Постоянный
Битрейт : 192 Кбит/сек
Каналы : 2 канала
Расположение каналов : Front: L R
Частота : 48,0 КГц
Битовая глубина : 16 бит
Метод сжатия : С потерями
Размер потока : 56,1 Мбайт (4%)
Заголовок : RUS
Язык : Russian
Default : Да
Forced : Нет

Аудио #2
Идентификатор : 3
Формат : AC-3
Формат/Информация : Audio Coding 3
Расширение режима : CM (complete main)
Параметр Endianness формата : Big
Идентификатор кодека : A_AC3
Продолжительность : 40 м.
Вид битрейта : Постоянный
Битрейт : 448 Кбит/сек
Каналы : 6 каналов
Расположение каналов : Front: L C R, Side: L R, LFE
Частота : 48,0 КГц
Битовая глубина : 16 бит
Метод сжатия : С потерями
Размер потока : 131 Мбайт (9%)
Заголовок : ENG
Язык : English
Default : Нет
Forced : Нет


Скриншоты:


Все раздачи сериала Менталист/The Mentalist

Время раздачи: По мере возможности
 Торрент: Платиновая раздача  Зарегистрирован
 
Скачать


 Зарегистрирован:   30 Сен 2012 00:33:06
 Размер:   33.3 GB  (
 Рейтинг:   4.6 (Голосов: 37)
 Поблагодарили:   126
 Проверка:   Оформление проверено модератором 30 Сен 2012 11:42:27
Как cкачать  ·  Как раздать  ·  Правильно оформить  ·  Поднять ратио!  
sinecure
Стаж: 9 лет 5 мес.
Сообщений: 95
Ratio: 415.674
Раздал: 18.07 TB
Поблагодарили: 7
100%
Откуда: Siberia
mongolia.gif
Дорогие друзья, прошу помощи,
если конечно, заявленная концепция
придётся вам по душе, поддержите раздачу, а то снесут:
https://nnmclub.to/forum/viewtopic.php?t=1281796
Ваши комменты и обращения к модерам могут ей помочь
выйти из форума "Видео (temp)" и сохраниться на трекере.
Спасибо.
Показать сообщения:   
Начать новую тему   Ответить на тему    Торрент-трекер NNM-Club -> Зарубежные сериалы -> Менталист / The Mentalist ; Теория Лжи / Lie To Me Часовой пояс: GMT + 3
Страница 1 из 1