Классический форум-трекер
canvas not supported
Нас вместе: 4 211 000

Менталист / The Mentalist (Сезон 5, серии 01-18 (22)) (2012) WEB-DLRip (napaBo3uk) (обновляемая)


Страницы:  1, 2, 3, 4, 5, 6  След. 
 
RSS
Начать новую тему   Ответить на тему    Торрент-трекер NNM-Club -> Архив торрентов -> Архив Сериалов и Архив Старого многосерийного кино до 90-х
Автор Сообщение
Дмитрий Валерьевич ®
Uploader 100+
Стаж: 13 лет
Сообщений: 6789
Ratio: 14K
Раздал: 276 TB
Поблагодарили: 336554
100%
Откуда: Есть такой город – Глазов
russia.gif
Менталист / The Mentalist
(Сезон 5, серии 01-18 (22)) (2012) WEB-DLRip (napaBo3uk)
(обновляемая)

«He reads between the lies.»
Русское название: Менталист
Оригинальное название: The Mentalist
Год выпуска: 2012
Страна: США
Жанр: Драма, криминал

Перевод: Любительский одноголосый закадровый - napaBo3uk

Режиссёры: Рэндалл Зиск, Крис Лонг
Актёры: Саймон Бейкер, Робин Танни, Аманда Риджетти, Тим Кенг, Овайн Йомен, Эммануэль Шрики и др.

Описание:
Патрик Джейн — детектив и независимый консультант из Калифорнийского Бюро Расследований (CBI), он использует свои отточенные, как лезвие, навыки наблюдения для раскрытия тяжких преступлений. В самом Бюро Джейн известен за частые нарушения протокола, а также за его звёздное прошлое: он работал медиумом, однако теперь сам признает, что симулировал паранормальные способности. Роль Джейна в раскрытии целой серии загадочных преступлений высоко ценится коллегами. Но суровая старший агент Тереза Лисбон против того, чтобы Джейн работал с её отрядом, и то вынужденно признает его успехи, то критикует его за театральность, нарциссизм и отсутствие границ.

СЭМПЛ

Продолжительность: ~00:42:00 серия
Качество видео: WEB-DLRip
Формат: AVI
Видео: 704x400 (16:9), 23.976 fps, XviD ~1253 kbps, ~0.186 bit/pixel
Аудио Rus: 48 kHz, MPEG Layer 3, 2 ch, 160 kbps
Аудио Eng: 48 kHz, MPEG Layer 3, 2 ch, 160 kbps

Сериал "Менталист / The Mentalist" на трекере NNM-Club


Общее
Формат : AVI
Формат/Информация : Audio Video Interleave
Размер файла : 471 Мбайт
Продолжительность : 41 м.
Общий поток : 1587 Кбит/сек
Программа кодирования : VirtualDubMod 1.5.10.2 (build 2540/release)
Библиотека кодирования : VirtualDubMod build 2540/release

Видео
Идентификатор : 0
Формат : MPEG-4 Visual
Профиль формата : Advanced Simple@L5
Параметр BVOP формата : 2
Параметр QPel формата : Нет
Параметр GMC формата : Без точки перехода
Параметр матрицы формата : Default (H.263)
Режим смешивания : Сжатый битовый поток
Идентификатор кодека : XVID
Идентификатор кодека/Подсказка : XviD
Продолжительность : 41 м.
Битрейт : 1253 Кбит/сек
Ширина : 704 пикселя
Высота : 400 пикселей
Соотношение сторон : 16:9
Частота кадров : 23,976 кадра/сек
Цветовое пространство : YUV
Субдискретизация насыщенности : 4:2:0
Битовая глубина : 8 бит
Тип развёртки : Прогрессивная
Метод сжатия : С потерями
Бит/(Пиксели*Кадры) : 0.186
Размер потока : 372 Мбайт (79%)
Библиотека кодирования : XviD 64

Аудио #1
Идентификатор : 1
Формат : MPEG Audio
Версия формата : Version 1
Профиль формата : Layer 3
Режим : Joint stereo
Расширение режима : MS Stereo
Идентификатор кодека : 55
Идентификатор кодека/Подсказка : MP3
Продолжительность : 41 м.
Вид битрейта : Постоянный
Битрейт : 160 Кбит/сек
Каналы : 2 канала
Частота : 48,0 КГц
Метод сжатия : С потерями
Размер потока : 47,5 Мбайт (10%)
Выравнивание : Разделение по промежуткам
Продолжительность промежутка : 42 мс. (1,00 видеокадр)
Время предзагрузки промежутка : 500 мс.

Аудио #2
Идентификатор : 2
Формат : MPEG Audio
Версия формата : Version 1
Профиль формата : Layer 3
Режим : Joint stereo
Расширение режима : MS Stereo
Идентификатор кодека : 55
Идентификатор кодека/Подсказка : MP3
Продолжительность : 41 м.
Вид битрейта : Постоянный
Битрейт : 160 Кбит/сек
Каналы : 2 канала
Частота : 48,0 КГц
Метод сжатия : С потерями
Размер потока : 47,5 Мбайт (10%)
Выравнивание : Разделение по промежуткам
Продолжительность промежутка : 42 мс. (1,00 видеокадр)
Время предзагрузки промежутка : 500 мс.
01. The Red Glass Bead
02. Devil's Cherry
03. Not One Red Cent
04. Blood Feud
05. Red Dawn
06. Cherry Picked
07. If It Bleeds, It Leads
08. Red Sails in the Sunset
09. Black Cherry
10. Panama Red
11. Days of Wine & Roses
12. Little Red Corvette
13. The Red Barn
14. Red in Tooth and Claw
15. Red Lacquer Nail Polish
16. There Will Be Blood
17. Red, White and Blue
18. Behind the Red Curtain
Внимание! Раздача ведётся путём добавления новых серий; при каждом добавлении создаётся новый торрент.
Чтобы начать докачку новой серии, пользователям необходимо сделать следующее:
1. Остановить скачивание;
2. Удалить старый торрент у себя из клиента (старые серии удалять не надо);
3. Скачать новый торрент и запустить его у себя в клиенте вместо старого, при этом указать клиенту путь в старую папку куда и должно происходить скачивание новых серий. Ваш клиент при этом должен произвести хеширование (проверку) старой папки и будет докачивать только те серии, которых у вас ещё нет. Старые серии при этом не удаляются, а продолжают раздаваться! Eсли вы уже удалили старые серии, то предотвратить повторную закачку старых серий можно, отжав галочку в соответствующих местах при запуске нового торрента.
Время раздачи: 24/7
 Торрент: Платиновая раздача  Зарегистрирован
 
Скачать


Примагнититься
 Зарегистрирован:   31 Мар 2013 05:10:56
 Размер:   8.49 GB  (
 Рейтинг:   4.8 (Голосов: 174)
 Поблагодарили:   561
 Проверка:   Оформление проверено модератором 31 Мар 2013 05:15:09
Как cкачать  ·  Как раздать  ·  Правильно оформить  ·  Поднять ратио!  
Дмитрий Валерьевич ®
Uploader 100+
Стаж: 13 лет
Сообщений: 6789
Ratio: 14K
Раздал: 276 TB
Поблагодарили: 336554
100%
Откуда: Есть такой город – Глазов
russia.gif
5 сезон, 1 серия.
Приятного просмотра!
DeNyALenin
Стаж: 12 лет
Сообщений: 1
Ratio: 1.324
6.98%
А когда в озвучке napaBo3uk, но в HD?
Listva
 
Стаж: 15 лет 7 мес.
Сообщений: 44
Ratio: 1.968
Раздал: 1.241 TB
100%
russia.gif
Ой, дождалась наконец-то! Спасибо! Только бы на этом сезоне все и кончилось, устала ждать развязки, хотя на Патрика можно смотреть до бесконечности :ангел:
oldprog0
 
Стаж: 11 лет 10 мес.
Сообщений: 21
Ratio: 10.65
100%
Откуда: Москва
russia.gif
Спасибо napaBo3uk! На мой взгляд, можно продолжать до бесконечности.
Как часто будут появляться новые серии?

Добавлено спустя 4 минуты 4 секунды:

Извините Dimon1808 ®, конечно, в первую очередь, спасибо ВАМ!
Дмитрий Валерьевич ®
Uploader 100+
Стаж: 13 лет
Сообщений: 6789
Ratio: 14K
Раздал: 276 TB
Поблагодарили: 336554
100%
Откуда: Есть такой город – Глазов
russia.gif
oldprog0 писал(а): Перейти к сообщению
...Как часто будут появляться новые серии?

По мере перевода и озвучивания, в среднем через 2-4 дня после выхода в оригинале.
График выхода серий в США/(России):
30.09/(01.10).2012 - The Red Glass Bead
07.10/(08.10).2012 - Devil's Cherry
14.10/(15.10).2012 - Not One Red Cent
21.10/(22.10).2012 - Blood Feud
28.10/(29.10).2012 - Cherry Picked
04.11/(05.11).2012 - Red Dawn
Дмитрий Валерьевич ®
Uploader 100+
Стаж: 13 лет
Сообщений: 6789
Ratio: 14K
Раздал: 276 TB
Поблагодарили: 336554
100%
Откуда: Есть такой город – Глазов
russia.gif
Добавлена 2 серия. Перекачайте торрент!
Bursan713
Стаж: 10 лет 9 мес.
Сообщений: 19
Ratio: 1.344
3.41%
Паравозик лучший в своём роде!!!
bayer_a
Стаж: 13 лет 1 мес.
Сообщений: 823
Ratio: 3.239
Поблагодарили: 428
100%
krevedko.png
А кто-нибудь в 720 разрешении выложит?
Stars 2006
Стаж: 13 лет
Сообщений: 48
Ratio: 0.991
100%
Ура!!!Дождалась!!!Сериал просто супер!!!!!!!! :клево:
ETOP-PRO
Стаж: 11 лет 2 мес.
Сообщений: 17
Ratio: 5.999
100%
russia.gif
спасибо паравозику )))
Дмитрий Валерьевич ®
Uploader 100+
Стаж: 13 лет
Сообщений: 6789
Ratio: 14K
Раздал: 276 TB
Поблагодарили: 336554
100%
Откуда: Есть такой город – Глазов
russia.gif
Добавлена 3 серия. Перекачайте торрент!
javanni104
Стаж: 11 лет
Сообщений: 88
Ratio: 7.044
100%
Откуда: мне знать кто Вы? О_о
roody.gif
чет не могу понять...почему вторая серия обрывается на 27 минуте?
Дмитрий Валерьевич ®
Uploader 100+
Стаж: 13 лет
Сообщений: 6789
Ratio: 14K
Раздал: 276 TB
Поблагодарили: 336554
100%
Откуда: Есть такой город – Глазов
russia.gif
javanni104, спасибо за подсказку. Видимо при создании торрента произошла ошибка.

Торрент перезалит. Перекачайте торрент!
Дмитрий Валерьевич ®
Uploader 100+
Стаж: 13 лет
Сообщений: 6789
Ratio: 14K
Раздал: 276 TB
Поблагодарили: 336554
100%
Откуда: Есть такой город – Глазов
russia.gif
Добавлена 4 серия. Перекачайте торрент!
Показать сообщения:   
Начать новую тему   Ответить на тему    Торрент-трекер NNM-Club -> Архив торрентов -> Архив Сериалов и Архив Старого многосерийного кино до 90-х Часовой пояс: GMT + 3
Страницы:  1, 2, 3, 4, 5, 6  След.
Страница 1 из 6