Классический форум-трекер
canvas not supported
Нас вместе: 4 211 000

Менталист / The Mentalist (2012) WEB-DL [1080p] [Сезон 5, Серии: 1-22 (22)] (Baibako)


Страницы:  1, 2  След. 
 
RSS
Начать новую тему   Ответить на тему    Торрент-трекер NNM-Club -> Зарубежные сериалы -> Менталист / The Mentalist ; Теория Лжи / Lie To Me
Автор Сообщение
nothink ®
Стаж: 11 лет 3 мес.
Сообщений: 280
Ratio: 47.145
Поблагодарили: 18740
94.16%
ukraine.gif
Менталист / The Mentalist (2012) WEB-DL [1080p] [Сезон 5, Серии: 1-22 (22)] (Baibako)
Русское название: Менталист
Оригинальное название: The Mentalist
Год выпуска: 2012
Жанр: Драма, Криминал

Перевод: Многоголосый закадровый, профессиональный (Baibako)
Вид субтитров: Отсутствуют

Режиссер: Крис Лонг
Актеры: Саймон Бейкер, Робин Танни, Аманда Риджетти, Тим Кенг, Овайн Йомен, Грегори Итцин...
Описание фильма:
Калифорнийское Бюро Расследований (CBI) занимается делом о похищении видного адвоката и лоббиста здания парламента. Директор CBI хочет поручить это дело Джейну, но Патрик пока не уверен, относительно своего будущего в команде, после встречи с Красным Джоном.
Патрик Джейн — детектив и независимый консультант из Калифорнийского Бюро Расследований (КБР), он использует свои отточенные, как лезвие, навыки наблюдения для раскрытия тяжких преступлений. В самом Бюро Джейн известен за частые нарушения протокола, а также за его звездное прошлое: он работал медиумом, однако теперь сам признает, что симулировал паранормальные способности. Роль Джейна в раскрытии целой серии загадочных преступлений высоко ценится коллегами. Но суровая старший агент Тереза Лисбон против того, чтоб Джейн работал с ее отрядом, и то вынужденно признает его успехи, то критикует его за театральность, нарциссизм и отсутствие границ.
Дополнительная информация:
Перевод: Lub_a
Озвучка: ChrisTref, Татьяна Оболевич, Алексей Кузнецов, Виталий Ткаченко и Александр Фурман
Сведение: igor7831, Baibak
Обложка: tvblog
Релиз группа: при поддержке
Продолжительность: 45 минут серия
Качество видео: WEB-DL 1080p

Видеокодек: MPEG-4 AVC/H.264
Битрейт видео: ~AVC High@L4.0 1920x1080 4831 Кбит/сек 23,976 кадра/сек
Аудиокодек: AC3 5.1
Aудио [1]: AC3 6 каналов 48,0 КГц 384 Кбит/сек CBR [rus]
Aудио [2]: AC3 6 каналов 48,0 КГц 384 Кбит/сек CBR [eng]
Добавлена 22я серия! Обновите торрент!
Все раздачи сериала


D:\films\Ìåíòàëèñò Ñåçîí 5 1080p (BaibaKo)\Mentalist.s05e01.The.Red.Glass.Bead.HD1080p.WEB-DL.Rus.Eng.BaibaKo.tv.mkv
General
UniqueID : 181033102344813193808141288554788090772 (0x8831B50FD9E58741942ABCD5DE38F394)
Complete name : D:\films\Ìåíòàëèñò Ñåçîí 5 1080p (BaibaKo)\Mentalist.s05e01.The.Red.Glass.Bead.HD1080p.WEB-DL.Rus.Eng.BaibaKo.tv.mkv
Format : Matroska
File size : 1.65 GiB
Duration : 41mn 25s
Overall bit rate : 5 713 Kbps
Movie name : BaibaKo.tv presents - Ìåíòàëèñò 5x01 Êðîâàâî-êðàñíàÿ áóñèíà
Encoded date : UTC 2012-10-13 18:10:56
Writing application : mkvmerge v5.4.0 ('Piper') built on Mar 10 2012 13:34:39
Writing library : libebml v1.2.3 + libmatroska v1.3.0
Video #1
ID : 1
Format : AVC
Format/Info : Advanced Video Codec
Format profile : High@L4.0
Format settings, CABAC : Yes
Format settings, ReFrames : 4 frames
Codec ID : V_MPEG4/ISO/AVC
Duration : 41mn 25s
Bit rate mode : Variable
Bit rate : 4 831 Kbps
Width : 1 920 pixels
Height : 1 080 pixels
Display aspect ratio : 16:9
Frame rate : 23.976 fps
Color space : YUV
Chroma subsampling : 4:2:0
Bit depth : 8 bits
Scan type : Progressive
Bits/(Pixel*Frame) : 0.097
Stream size : 1.40 GiB (85%)
Language : English
Color primaries : BT.709-5, BT.1361, IEC 61966-2-4, SMPTE RP177
Transfer characteristics : BT.709-5, BT.1361
Matrix coefficients : BT.709-5, BT.1361, IEC 61966-2-4 709, SMPTE RP177
Audio #2
ID : 2
Format : AC-3
Format/Info : Audio Coding 3
Mode extension : CM (complete main)
Codec ID : A_AC3
Duration : 41mn 25s
Bit rate mode : Constant
Bit rate : 384 Kbps
Channel(s) : 6 channels
Channel positions : Front: L C R, Side: L R, LFE
Sampling rate : 48.0 KHz
Bit depth : 16 bits
Compression mode : Lossy
Stream size : 114 MiB (7%)
Title : Rus BaibaKo.tv DD5.1
Language : Russian
Audio #3
ID : 3
Format : AC-3
Format/Info : Audio Coding 3
Mode extension : CM (complete main)
Codec ID : A_AC3
Duration : 41mn 25s
Bit rate mode : Constant
Bit rate : 384 Kbps
Channel(s) : 6 channels
Channel positions : Front: L C R, Side: L R, LFE
Sampling rate : 48.0 KHz
Bit depth : 16 bits
Compression mode : Lossy
Stream size : 114 MiB (7%)
Title : Eng DD5.1
Language : English

Время раздачи: 24/7
 Торрент: Платиновая раздача  Зарегистрирован
 
Скачать


 Зарегистрирован:   10 Май 2013 22:51:26
 Размер:   38.2 GB  (
 Рейтинг:   4.7 (Голосов: 175)
 Поблагодарили:   563
 Проверка:   Оформление проверено модератором 11 Май 2013 00:51:34
Как cкачать  ·  Как раздать  ·  Правильно оформить  ·  Поднять ратио!  
boryspop
Стаж: 11 лет 3 мес.
Сообщений: 16
Ratio: 22.119
100%
ukraine.gif
:супер!: Прекрасный сериал, с нетерпением жду новых серий))))))
divandiv
Стаж: 10 лет 1 мес.
Сообщений: 44
Ratio: 20.119
99.11%
ussr.gif
...ну ктоже..., ктоже красныйджон...? :задумался:
Legion15
Стаж: 12 лет 2 мес.
Сообщений: 26
Ratio: 12.712
100%
Лутше перевод Байбако,чем Паравозик.
nothink ®
Стаж: 11 лет 3 мес.
Сообщений: 280
Ratio: 47.145
Поблагодарили: 18740
94.16%
ukraine.gif
Legion15, согласен
Homer.rus
Стаж: 11 лет 8 мес.
Сообщений: 2
Ratio: 12.055
0%
russia.gif
День добрый.
Надеюсь здесь не закроют раздачу как на известный трекер?
Kurushi
Стаж: 11 лет 5 мес.
Сообщений: 283
Ratio: 74.112
Раздал: 12.88 TB
Поблагодарили: 208
100%
norway.gif
блин, известный трекер таким огрызком стал.. лучше б его вообще не было уже.
nothink ®
Стаж: 11 лет 3 мес.
Сообщений: 280
Ratio: 47.145
Поблагодарили: 18740
94.16%
ukraine.gif
Homer.rus
Добрый. Думаю не закроют
BartWeyder
Стаж: 10 лет 9 мес.
Сообщений: 46
Ratio: 14.77
22.31%
даже менталиста на рутрахере закрыли, СЛАВА NNM-CLUB!!!!
УкропДляП​отенцииПо​мог​
Стаж: 12 лет 2 мес.
Сообщений: 2
Ratio: 27.789
0%
Смотрел на Грэйс Ван Пелт, какая то опухшая после "курсов" думал связанно с беременностью актрисы - так и есть, рожать ездила.
nothink ®
Стаж: 11 лет 3 мес.
Сообщений: 280
Ratio: 47.145
Поблагодарили: 18740
94.16%
ukraine.gif
УкропДляПотенцииПомог, да, именно так и есть. Вас не смутило что она все последние серии только сидела? )))
snackie
Стаж: 11 лет 11 мес.
Сообщений: 1
Ratio: 38.48
4.62%
russia.gif
УкропДляПотенцииПомог писал(а): Перейти к сообщению
Смотрел на Грэйс Ван Пелт, какая то опухшая после "курсов" думал связанно с беременностью актрисы - так и есть, рожать ездила.

После родов (в двадцатой серии) она поуменьшилась, конечно, в размерах, но пока до возвращения к изначальным габаритам еще далеко.
ZzzPK13
Стаж: 10 лет 3 мес.
Сообщений: 28
Ratio: 0.439
89.16%
отличный сериал =)
nothink ®
Стаж: 11 лет 3 мес.
Сообщений: 280
Ratio: 47.145
Поблагодарили: 18740
94.16%
ukraine.gif

Добавлена 22я серия! Обновите торрент!
mydaoway
Стаж: 11 лет 8 мес.
Сообщений: 88
Ratio: 53.523
100%
russia.gif
ууу... только сейчас обратил внимание, что сезон закончен.
спасибо всем! до встречи в следующем сезоне.
Показать сообщения:   
Начать новую тему   Ответить на тему    Торрент-трекер NNM-Club -> Зарубежные сериалы -> Менталист / The Mentalist ; Теория Лжи / Lie To Me Часовой пояс: GMT + 3
Страницы:  1, 2  След.
Страница 1 из 2