Классический форум-трекер
canvas not supported
Нас вместе: 4 233 330

Могучие утята / The mighty ducks (1992) [H.264/720p-LQ] HDTVRip


 
 
RSS
Начать новую тему   Ответить на тему    Торрент-трекер NNM-Club -> Зарубежное кино -> Зарубежные Фильмы (HD, FHD)
Автор Сообщение
smpeal ®
Стаж: 11 лет 9 мес.
Сообщений: 62
Ratio: 99.87
Поблагодарили: 7340
100%
ussr.gif
Могучие утята / The mighty ducks (1992) [H.264/720p-LQ] HDTVRip
Русское название: Могучие утята
Оригинальное название: The mighty ducks
Год выпуска: 1992
Жанр: Спорт, Комедия, Семейный

Описание фильма:
Когда-то в юности адвокат Гордон Бомбей играл в хоккей. Через много лет судьба снова дает ему шанс вернуться в большой спорт. За правонарушение он приговорен городскими властями к общественным работам в качестве тренера детской хоккейной команды, самой худшей в лиге.

Подопечные Гордона не умеют кататься на коньках, все время промахиваются мимо ворот и созданы только для того, чтобы проигрывать. Адвокат называет свою команду «Могучие утята» и начинает готовить ее к победе. Приближается долгожданный финал.

Режиссер: Стивен Херек
Актеры: Эмилио Эстевез, Джосс Экленд, Лейн Смит, Хайди Клинг, Йозеф Зоммер, Джошуа Джексон, Элден Хенсон, Шон Уайсс, М. К. Гейни, Мэтт Доэрти

Продолжительность: 01:39:21
Перевод: Многоголосый закадровый (ТНТ)
Релиз группа: Element-Team



Дата мировой премьеры: 20 сентября 1992

Видеокодек: AVC [H.264]
Битрейт видео: 3002 Kbps
Размер кадра: 1280x720
Качество видео: HDTVRip
Аудио: AC3, 192 Kbps, 2 Канала: русский многоголосый закадровый (ТНТ)
Общее
Уникальный идентификатор : 228048839912996722078820427193540945759 (0xAB909BE49D27F99ABCD71D530ECC275F)
Полное имя : Z:\Фильмы с продолжением\Могучие утята\[nnm-club]_THE_MIGHTY_DUCKS_HDTVRip.720.mkv
Формат : Matroska
Версия формата : Version 2
Размер файла : 2,19 Гбайт
Продолжительность : 1 ч. 39 м.
Общий поток : 3155 Кбит/сек
Название фильма : THE_MIGHTY_DUCKS_HDTVRip.720.Element_team
Дата кодирования : UTC 2012-04-02 14:07:53
Программа кодирования : mkvmerge v4.9.1 ('Ich will') сборка от Jul 11 2011 23:53:15
Библиотека кодирования : libebml v1.2.1 + libmatroska v1.1.1

Видео
Идентификатор : 1
Формат : AVC
Формат/Информация : Advanced Video Codec
Профиль формата : High@L4.1
Параметр CABAC формата : Да
Параметр ReFrames формата : 10 кадров
Режим смешивания : Header stripping
Идентификатор кодека : V_MPEG4/ISO/AVC
Продолжительность : 1 ч. 39 м.
Битрейт : 3002 Кбит/сек
Ширина : 1280 пикселей
Высота : 720 пикселей
Соотношение сторон : 1,85:1
Соотношение сторон в оригинале : 1,85:1
Режим частоты кадров : Постоянный
Частота кадров : 25,000 кадров/сек
Цветовое пространство : YUV
Субдискретизация насыщенности : 4:2:0
Битовая глубина : 8 бит
Тип развёртки : Прогрессивная
Бит/(Пиксели*Кадры) : 0.130
Размер потока : 2,01 Гбайт (92%)
Заголовок : THE_MIGHTY_DUCKS_HDTVRip.720.Element_team
Библиотека кодирования : x264 core 120 r2164
Настройки программы : cabac=1 / ref=10 / deblock=1:-3:-3 / analyse=0x3:0x133 / me=esa / subme=9 / psy=1 / psy_rd=2.00:0.20 / mixed_ref=0 / me_range=16 / chroma_me=1 / trellis=1 / 8x8dct=1 / cqm=0 / deadzone=21,12 / fast_pskip=1 / chroma_qp_offset=-3 / threads=12 / sliced_threads=0 / nr=1 / decimate=1 / interlaced=0 / bluray_compat=0 / constrained_intra=0 / bframes=3 / b_pyramid=2 / b_adapt=2 / b_bias=0 / direct=3 / weightb=1 / open_gop=1 / weightp=0 / keyint=250 / keyint_min=25 / scenecut=40 / intra_refresh=0 / rc_lookahead=60 / rc=abr / mbtree=1 / bitrate=3002 / ratetol=1.0 / qcomp=0.80 / qpmin=1 / qpmax=69 / qpstep=4 / vbv_maxrate=24000 / vbv_bufsize=24000 / nal_hrd=none / ip_ratio=1.40 / aq=1:1.30
Язык : English
Default : Да
Forced : Нет

Аудио
Идентификатор : 2
Формат : AC-3
Формат/Информация : Audio Coding 3
Расширение режима : CM (complete main)
Параметр Endianness формата : Big
Режим смешивания : Header stripping
Идентификатор кодека : A_AC3
Продолжительность : 1 ч. 39 м.
Вид битрейта : Постоянный
Битрейт : 192 Кбит/сек
Каналы : 2 канала
Расположение каналов : Front: L R
Частота : 48,0 КГц
Битовая глубина : 16 бит
Метод сжатия : С потерями
Задержка видео : 40 мс.
Размер потока : 136 Мбайт (6%)
Язык : Russian
Default : Да
Forced : Нет

Текст
Идентификатор : 3
Формат : PGS
Режим смешивания : zlib
Идентификатор кодека : S_HDMV/PGS
Идентификатор кодека/Информация : The same subtitle format used on BDs/HD-DVDs
Язык : English
Default : Да
Forced : Нет
Скриншоты:






Время раздачи: По выходным 12-24, иногда вечером в будни
[NNM-Club.ru]_THE_MIGHTY_DUCKS_HDTVRip.720.mkv.torrent
 Торрент: Платиновая раздача  Зарегистрирован
 
Скачать


Примагнититься
 Зарегистрирован:   21 Окт 2012 12:12:55
 Размер:   2.19 GB  (
 Рейтинг:   4.7 (Голосов: 23)
 Поблагодарили:   46
 Проверка:   Оформление проверено модератором 21 Окт 2012 20:42:33
Как cкачать  ·  Как раздать  ·  Правильно оформить  ·  Поднять ратио!  
retro84
Стаж: 15 лет 7 мес.
Сообщений: 27
Ratio: 6.219
100%
russia.gif
фильм просто отличный!!! Как говориться - моего детсва
StayLo
Стаж: 11 лет 8 мес.
Сообщений: 2
Ratio: 0.914
0%
russia.gif
Да да согласен с тобой фильм и моего детства тоже!
Показать сообщения:   
Начать новую тему   Ответить на тему    Торрент-трекер NNM-Club -> Зарубежное кино -> Зарубежные Фильмы (HD, FHD) Часовой пояс: GMT + 3
Страница 1 из 1