Классический форум-трекер
canvas not supported
Нас вместе: 4 234 013

Diana Krall - Glad Rag Doll (2012) /Deluxe edition/ [FLAC 2.0 24/96|tracks (WEB-DL)]<Vocal, Jazz>


 
 
RSS
Начать новую тему   Ответить на тему    Торрент-трекер NNM-Club -> HD Audio и Многоканальная Музыка -> WEB-DL-Audio
Автор Сообщение
eric_s ®
Стаж: 16 лет 2 мес.
Сообщений: 1018
Ratio: 8.963
Поблагодарили: 20618
100%
Diana Krall - Glad Rag Doll (2012) /Deluxe edition/
Год: 2012
Жанр: Vocal, Jazz
Кодек: FLAC 2.0 24/96
Продолжительность: 01:08:24

Трек лист:
1. We Just Couldn't Say Goodbye (Harry M. Woods) 3:07
2. There Ain't No Sweet Man That's Worth the Salt of My Tears (Fred Fisher) 4:29
3. Just Like a Butterfly That's Caught in the Rain (Mort Dixon/Harry Woods) 3:43
4. You Know I Know Ev'rything's Made for Love (Al Sherman/Charles Tobias/Al Johnson) 3:47
5. Glad Rag Doll (Milton Ager/Dan Dougherty/Jack Yellen) 4:34
6. I'm a Little Mixed Up (Betty James/Edward Johnson) 4:36
7. Prairie Lullaby (Billy Hill) 4:22
8. Here Lies Love (Ralph Rainger/Leo Robin) 5:09
9. I Used to Love You But It's All Over Now (Albert Von Tilzer/Lew Brown) 2:50
10. Let it Rain (James Kendis/Hal Dyson) 5:44
11. Lonely Avenue (Doc Pomus) 6:57
12. Wide River to Cross (Julie Miller/Steven Miller) 3:51
13. When the Curtain Comes Down (Carl Hoefle/Al Lewis/Al Sherman)4:51
14. As Long as I Love (George Jessel/Ben Oakland/Milton Drake) 2:29
15. Glad Rag Doll (Alternate Version) (Milton Ager/Dan Dougherty/Jack Yellen) 2:54
16. Garden in the Rain (James Dyrenforth/Caroll Gibbons) 2:55
17. There Ain't No Sweet Man That's Worth the Salt of My Tears (Alternate Version) (Fred Fisher) 2:06

Музыканты:
Marc Ribot (Electric Guitar, Acoustic Guitar, 6 String Bass and Banjo)
T Bone Burnett (Guitars)
Howard Coward (Ukulele, Mandola, Tenor Guitar, Harmony Vocals)
Jay Bellerose (Drums)
Dennis Crouch (Bass)
Bryan Sutton (Guitars)
Colin Linden (Guitars, Dobro)
Keefus Green (Keyboards, Mellotron)
Код:
General
Complete name                            : E:\_Upload\Glad Rag Doll Deluxe Edition\1-We Just Couldnt Say Goodbye.flac
Format                                   : FLAC
Format/Info                              : Free Lossless Audio Codec
File size                                : 66.1 MiB
Duration                                 : 3mn 7s
Overall bit rate mode                    : Variable
Overall bit rate                         : 2 966 Kbps
Album                                    : Glad Rag Doll (Deluxe Edition)
Album/Performer                          : Diana Krall
Track name                               : We Just Couldn't Say Goodbye
Track name/Position                      : 01
Performer                                : Diana Krall
Composer                                 : Harry M. Woods
Genre                                    : Jazz
Recorded date                            : 2012
Cover                                    : Yes
Cover type                               : Cover (front)
Cover MIME                               : image/jpeg
HDTRACKS                                 : www.hdtracks.com

Audio
Format                                   : FLAC
Format/Info                              : Free Lossless Audio Codec
Duration                                 : 3mn 7s
Bit rate mode                            : Variable
Bit rate                                 : 2 951 Kbps
Channel(s)                               : 2 channels
Sampling rate                            : 96.0 KHz
Bit depth                                : 24 bits
Stream size                              : 65.8 MiB (99%)
Writing library                          : libFLAC 1.2.1 (UTC 2007-09-17)

General
Complete name                            : E:\_Upload\Glad Rag Doll Deluxe Edition\2-There Aint No Sweet Man That.flac
Format                                   : FLAC
Format/Info                              : Free Lossless Audio Codec
File size                                : 96.5 MiB
Duration                                 : 4mn 29s
Overall bit rate mode                    : Variable
Overall bit rate                         : 3 004 Kbps
Album                                    : Glad Rag Doll (Deluxe Edition)
Album/Performer                          : Diana Krall
Track name                               : There Ain't No Sweet Man That's Worth The Salt Of My Tears
Track name/Position                      : 02
Performer                                : Diana Krall
Composer                                 : Fred Fisher
Genre                                    : Jazz
Recorded date                            : 2012
Cover                                    : Yes
Cover type                               : Cover (front)
Cover MIME                               : image/jpeg
HDTRACKS                                 : www.hdtracks.com

Audio
Format                                   : FLAC
Format/Info                              : Free Lossless Audio Codec
Duration                                 : 4mn 29s
Bit rate mode                            : Variable
Bit rate                                 : 2 993 Kbps
Channel(s)                               : 2 channels
Sampling rate                            : 96.0 KHz
Bit depth                                : 24 bits
Stream size                              : 96.2 MiB (100%)
Writing library                          : libFLAC 1.2.1 (UTC 2007-09-17)

General
Complete name                            : E:\_Upload\Glad Rag Doll Deluxe Edition\3-Just Like A Butterfly Thats .flac
Format                                   : FLAC
Format/Info                              : Free Lossless Audio Codec
File size                                : 77.4 MiB
Duration                                 : 3mn 43s
Overall bit rate mode                    : Variable
Overall bit rate                         : 2 909 Kbps
Album                                    : Glad Rag Doll (Deluxe Edition)
Album/Performer                          : Diana Krall
Track name                               : Just Like A Butterfly That's Caught In The Rain
Track name/Position                      : 03
Performer                                : Diana Krall
Composer                                 : Mort Dixon, Harry Woods
Genre                                    : Jazz
Recorded date                            : 2012
Cover                                    : Yes
Cover type                               : Cover (front)
Cover MIME                               : image/jpeg
HDTRACKS                                 : www.hdtracks.com

Audio
Format                                   : FLAC
Format/Info                              : Free Lossless Audio Codec
Duration                                 : 3mn 43s
Bit rate mode                            : Variable
Bit rate                                 : 2 896 Kbps
Channel(s)                               : 2 channels
Sampling rate                            : 96.0 KHz
Bit depth                                : 24 bits
Stream size                              : 77.0 MiB (100%)
Writing library                          : libFLAC 1.2.1 (UTC 2007-09-17)

General
Complete name                            : E:\_Upload\Glad Rag Doll Deluxe Edition\4-You Know I Know Evrythings M.flac
Format                                   : FLAC
Format/Info                              : Free Lossless Audio Codec
File size                                : 81.6 MiB
Duration                                 : 3mn 47s
Overall bit rate mode                    : Variable
Overall bit rate                         : 3 010 Kbps
Album                                    : Glad Rag Doll (Deluxe Edition)
Album/Performer                          : Diana Krall
Track name                               : You Know - I Know Ev'rything's Made For Love
Track name/Position                      : 04
Performer                                : Diana Krall
Composer                                 : Al Sherman, Charles Tobias, Howard E. Johnson
Genre                                    : Jazz
Recorded date                            : 2012
Cover                                    : Yes
Cover type                               : Cover (front)
Cover MIME                               : image/jpeg
HDTRACKS                                 : www.hdtracks.com

Audio
Format                                   : FLAC
Format/Info                              : Free Lossless Audio Codec
Duration                                 : 3mn 47s
Bit rate mode                            : Variable
Bit rate                                 : 2 998 Kbps
Channel(s)                               : 2 channels
Sampling rate                            : 96.0 KHz
Bit depth                                : 24 bits
Stream size                              : 81.2 MiB (100%)
Writing library                          : libFLAC 1.2.1 (UTC 2007-09-17)

General
Complete name                            : E:\_Upload\Glad Rag Doll Deluxe Edition\5-Glad Rag Doll.flac
Format                                   : FLAC
Format/Info                              : Free Lossless Audio Codec
File size                                : 91.2 MiB
Duration                                 : 4mn 34s
Overall bit rate mode                    : Variable
Overall bit rate                         : 2 787 Kbps
Album                                    : Glad Rag Doll (Deluxe Edition)
Album/Performer                          : Diana Krall
Track name                               : Glad Rag Doll
Track name/Position                      : 05
Performer                                : Diana Krall
Composer                                 : Dougherty, Jack Yellen
Genre                                    : Jazz
Recorded date                            : 2012
Cover                                    : Yes
Cover type                               : Cover (front)
Cover MIME                               : image/jpeg
HDTRACKS                                 : www.hdtracks.com

Audio
Format                                   : FLAC
Format/Info                              : Free Lossless Audio Codec
Duration                                 : 4mn 34s
Bit rate mode                            : Variable
Bit rate                                 : 2 777 Kbps
Channel(s)                               : 2 channels
Sampling rate                            : 96.0 KHz
Bit depth                                : 24 bits
Stream size                              : 90.9 MiB (100%)
Writing library                          : libFLAC 1.2.1 (UTC 2007-09-17)

General
Complete name                            : E:\_Upload\Glad Rag Doll Deluxe Edition\6-Im A Little Mixed Up.flac
Format                                   : FLAC
Format/Info                              : Free Lossless Audio Codec
File size                                : 100 MiB
Duration                                 : 4mn 36s
Overall bit rate mode                    : Variable
Overall bit rate                         : 3 030 Kbps
Album                                    : Glad Rag Doll (Deluxe Edition)
Album/Performer                          : Diana Krall
Track name                               : I'm A Little Mixed Up
Track name/Position                      : 06
Performer                                : Diana Krall
Composer                                 : Edward Johnson, Betty James
Genre                                    : Jazz
Recorded date                            : 2012
Cover                                    : Yes
Cover type                               : Cover (front)
Cover MIME                               : image/jpeg
HDTRACKS                                 : www.hdtracks.com

Audio
Format                                   : FLAC
Format/Info                              : Free Lossless Audio Codec
Duration                                 : 4mn 36s
Bit rate mode                            : Variable
Bit rate                                 : 3 020 Kbps
Channel(s)                               : 2 channels
Sampling rate                            : 96.0 KHz
Bit depth                                : 24 bits
Stream size                              : 99.7 MiB (100%)
Writing library                          : libFLAC 1.2.1 (UTC 2007-09-17)

General
Complete name                            : E:\_Upload\Glad Rag Doll Deluxe Edition\7-Prairie Lullaby.flac
Format                                   : FLAC
Format/Info                              : Free Lossless Audio Codec
File size                                : 92.0 MiB
Duration                                 : 4mn 22s
Overall bit rate mode                    : Variable
Overall bit rate                         : 2 941 Kbps
Album                                    : Glad Rag Doll (Deluxe Edition)
Album/Performer                          : Diana Krall
Track name                               : Prairie Lullaby
Track name/Position                      : 07
Performer                                : Diana Krall
Composer                                 : Billy Hill
Genre                                    : Jazz
Recorded date                            : 2012
Cover                                    : Yes
Cover type                               : Cover (front)
Cover MIME                               : image/jpeg
HDTRACKS                                 : www.hdtracks.com

Audio
Format                                   : FLAC
Format/Info                              : Free Lossless Audio Codec
Duration                                 : 4mn 22s
Bit rate mode                            : Variable
Bit rate                                 : 2 931 Kbps
Channel(s)                               : 2 channels
Sampling rate                            : 96.0 KHz
Bit depth                                : 24 bits
Stream size                              : 91.6 MiB (100%)
Writing library                          : libFLAC 1.2.1 (UTC 2007-09-17)

General
Complete name                            : E:\_Upload\Glad Rag Doll Deluxe Edition\8-Here Lies Love.flac
Format                                   : FLAC
Format/Info                              : Free Lossless Audio Codec
File size                                : 110 MiB
Duration                                 : 5mn 8s
Overall bit rate mode                    : Variable
Overall bit rate                         : 2 996 Kbps
Album                                    : Glad Rag Doll (Deluxe Edition)
Album/Performer                          : Diana Krall
Track name                               : Here Lies Love
Track name/Position                      : 08
Performer                                : Diana Krall
Composer                                 : Ralph Rainger, Leo Robin
Genre                                    : Jazz
Recorded date                            : 2012
Cover                                    : Yes
Cover type                               : Cover (front)
Cover MIME                               : image/jpeg
HDTRACKS                                 : www.hdtracks.com

Audio
Format                                   : FLAC
Format/Info                              : Free Lossless Audio Codec
Duration                                 : 5mn 8s
Bit rate mode                            : Variable
Bit rate                                 : 2 986 Kbps
Channel(s)                               : 2 channels
Sampling rate                            : 96.0 KHz
Bit depth                                : 24 bits
Stream size                              : 110 MiB (100%)
Writing library                          : libFLAC 1.2.1 (UTC 2007-09-17)

General
Complete name                            : E:\_Upload\Glad Rag Doll Deluxe Edition\9-I Used To Love You But Its A.flac
Format                                   : FLAC
Format/Info                              : Free Lossless Audio Codec
File size                                : 60.7 MiB
Duration                                 : 2mn 50s
Overall bit rate mode                    : Variable
Overall bit rate                         : 2 989 Kbps
Album                                    : Glad Rag Doll (Deluxe Edition)
Album/Performer                          : Diana Krall
Track name                               : I Used To Love You But It's All Over Now
Track name/Position                      : 09
Performer                                : Diana Krall
Composer                                 : Albert Tilzer, Lew Brown
Genre                                    : Jazz
Recorded date                            : 2012
Cover                                    : Yes
Cover type                               : Cover (front)
Cover MIME                               : image/jpeg
HDTRACKS                                 : www.hdtracks.com

Audio
Format                                   : FLAC
Format/Info                              : Free Lossless Audio Codec
Duration                                 : 2mn 50s
Bit rate mode                            : Variable
Bit rate                                 : 2 972 Kbps
Channel(s)                               : 2 channels
Sampling rate                            : 96.0 KHz
Bit depth                                : 24 bits
Stream size                              : 60.4 MiB (99%)
Writing library                          : libFLAC 1.2.1 (UTC 2007-09-17)

General
Complete name                            : E:\_Upload\Glad Rag Doll Deluxe Edition\10-Let It Rain.flac
Format                                   : FLAC
Format/Info                              : Free Lossless Audio Codec
File size                                : 119 MiB
Duration                                 : 5mn 44s
Overall bit rate mode                    : Variable
Overall bit rate                         : 2 904 Kbps
Album                                    : Glad Rag Doll (Deluxe Edition)
Album/Performer                          : Diana Krall
Track name                               : Let It Rain
Track name/Position                      : 10
Performer                                : Diana Krall
Composer                                 : James Kendis, Hal Dyson
Genre                                    : Jazz
Recorded date                            : 2012
Cover                                    : Yes
Cover type                               : Cover (front)
Cover MIME                               : image/jpeg
HDTRACKS                                 : www.hdtracks.com

Audio
Format                                   : FLAC
Format/Info                              : Free Lossless Audio Codec
Duration                                 : 5mn 44s
Bit rate mode                            : Variable
Bit rate                                 : 2 895 Kbps
Channel(s)                               : 2 channels
Sampling rate                            : 96.0 KHz
Bit depth                                : 24 bits
Stream size                              : 119 MiB (100%)
Writing library                          : libFLAC 1.2.1 (UTC 2007-09-17)

General
Complete name                            : E:\_Upload\Glad Rag Doll Deluxe Edition\11-Lonely Avenue.flac
Format                                   : FLAC
Format/Info                              : Free Lossless Audio Codec
File size                                : 152 MiB
Duration                                 : 6mn 57s
Overall bit rate mode                    : Variable
Overall bit rate                         : 3 055 Kbps
Album                                    : Glad Rag Doll (Deluxe Edition)
Album/Performer                          : Diana Krall
Track name                               : Lonely Avenue
Track name/Position                      : 11
Performer                                : Diana Krall
Composer                                 : Doc Pomus
Genre                                    : Jazz
Recorded date                            : 2012
Cover                                    : Yes
Cover type                               : Cover (front)
Cover MIME                               : image/jpeg
HDTRACKS                                 : www.hdtracks.com

Audio
Format                                   : FLAC
Format/Info                              : Free Lossless Audio Codec
Duration                                 : 6mn 57s
Bit rate mode                            : Variable
Bit rate                                 : 3 048 Kbps
Channel(s)                               : 2 channels
Sampling rate                            : 96.0 KHz
Bit depth                                : 24 bits
Stream size                              : 152 MiB (100%)
Writing library                          : libFLAC 1.2.1 (UTC 2007-09-17)

General
Complete name                            : E:\_Upload\Glad Rag Doll Deluxe Edition\12-Wide River To Cross.flac
Format                                   : FLAC
Format/Info                              : Free Lossless Audio Codec
File size                                : 83.9 MiB
Duration                                 : 3mn 51s
Overall bit rate mode                    : Variable
Overall bit rate                         : 3 042 Kbps
Album                                    : Glad Rag Doll (Deluxe Edition)
Album/Performer                          : Diana Krall
Track name                               : Wide River To Cross
Track name/Position                      : 12
Performer                                : Diana Krall
Composer                                 : Julie Miller, Steven Miller
Genre                                    : Jazz
Recorded date                            : 2012
Cover                                    : Yes
Cover type                               : Cover (front)
Cover MIME                               : image/jpeg
HDTRACKS                                 : www.hdtracks.com

Audio
Format                                   : FLAC
Format/Info                              : Free Lossless Audio Codec
Duration                                 : 3mn 51s
Bit rate mode                            : Variable
Bit rate                                 : 3 029 Kbps
Channel(s)                               : 2 channels
Sampling rate                            : 96.0 KHz
Bit depth                                : 24 bits
Stream size                              : 83.5 MiB (100%)
Writing library                          : libFLAC 1.2.1 (UTC 2007-09-17)

General
Complete name                            : E:\_Upload\Glad Rag Doll Deluxe Edition\13-When The Curtain Comes Down.flac
Format                                   : FLAC
Format/Info                              : Free Lossless Audio Codec
File size                                : 106 MiB
Duration                                 : 4mn 51s
Overall bit rate mode                    : Variable
Overall bit rate                         : 3 042 Kbps
Album                                    : Glad Rag Doll (Deluxe Edition)
Album/Performer                          : Diana Krall
Track name                               : When The Curtain Comes Down
Track name/Position                      : 13
Performer                                : Diana Krall
Composer                                 : Carl Hoefle, Al Lewis, Al Sherman
Genre                                    : Jazz
Recorded date                            : 2012
Cover                                    : Yes
Cover type                               : Cover (front)
Cover MIME                               : image/jpeg
HDTRACKS                                 : www.hdtracks.com

Audio
Format                                   : FLAC
Format/Info                              : Free Lossless Audio Codec
Duration                                 : 4mn 51s
Bit rate mode                            : Variable
Bit rate                                 : 3 033 Kbps
Channel(s)                               : 2 channels
Sampling rate                            : 96.0 KHz
Bit depth                                : 24 bits
Stream size                              : 105 MiB (100%)
Writing library                          : libFLAC 1.2.1 (UTC 2007-09-17)

General
Complete name                            : E:\_Upload\Glad Rag Doll Deluxe Edition\14-As Long As I Love.flac
Format                                   : FLAC
Format/Info                              : Free Lossless Audio Codec
File size                                : 50.3 MiB
Duration                                 : 2mn 29s
Overall bit rate mode                    : Variable
Overall bit rate                         : 2 815 Kbps
Album                                    : Glad Rag Doll (Deluxe Edition)
Album/Performer                          : Diana Krall
Track name                               : As Long As I Love
Track name/Position                      : 14
Performer                                : Diana Krall
Composer                                 : Milton Drake, George Jessel, Ben Oakland
Genre                                    : Jazz
Recorded date                            : 2012
Cover                                    : Yes
Cover type                               : Cover (front)
Cover MIME                               : image/jpeg
HDTRACKS                                 : www.hdtracks.com

Audio
Format                                   : FLAC
Format/Info                              : Free Lossless Audio Codec
Duration                                 : 2mn 29s
Bit rate mode                            : Variable
Bit rate                                 : 2 796 Kbps
Channel(s)                               : 2 channels
Sampling rate                            : 96.0 KHz
Bit depth                                : 24 bits
Stream size                              : 49.9 MiB (99%)
Writing library                          : libFLAC 1.2.1 (UTC 2007-09-17)

General
Complete name                            : E:\_Upload\Glad Rag Doll Deluxe Edition\15-Glad Rag Doll Alternate Ver.flac
Format                                   : FLAC
Format/Info                              : Free Lossless Audio Codec
File size                                : 52.4 MiB
Duration                                 : 2mn 54s
Overall bit rate mode                    : Variable
Overall bit rate                         : 2 514 Kbps
Album                                    : Glad Rag Doll (Deluxe Edition)
Album/Performer                          : Diana Krall
Track name                               : Glad Rag Doll (Alternate Version)
Track name/Position                      : 15
Performer                                : Diana Krall
Composer                                 : Dougherty, Jack Yellen
Genre                                    : Jazz
Recorded date                            : 2012
Cover                                    : Yes
Cover type                               : Cover (front)
Cover MIME                               : image/jpeg
HDTRACKS                                 : www.hdtracks.com

Audio
Format                                   : FLAC
Format/Info                              : Free Lossless Audio Codec
Duration                                 : 2mn 54s
Bit rate mode                            : Variable
Bit rate                                 : 2 497 Kbps
Channel(s)                               : 2 channels
Sampling rate                            : 96.0 KHz
Bit depth                                : 24 bits
Stream size                              : 52.1 MiB (99%)
Writing library                          : libFLAC 1.2.1 (UTC 2007-09-17)

General
Complete name                            : E:\_Upload\Glad Rag Doll Deluxe Edition\16-Garden In The Rain.flac
Format                                   : FLAC
Format/Info                              : Free Lossless Audio Codec
File size                                : 52.6 MiB
Duration                                 : 2mn 55s
Overall bit rate mode                    : Variable
Overall bit rate                         : 2 517 Kbps
Album                                    : Glad Rag Doll (Deluxe Edition)
Album/Performer                          : Diana Krall
Track name                               : Garden In The Rain
Track name/Position                      : 16
Performer                                : Diana Krall
Composer                                 : James Dyrenforth, Caroll Gibbons
Genre                                    : Jazz
Recorded date                            : 2012
Cover                                    : Yes
Cover type                               : Cover (front)
Cover MIME                               : image/jpeg
HDTRACKS                                 : www.hdtracks.com

Audio
Format                                   : FLAC
Format/Info                              : Free Lossless Audio Codec
Duration                                 : 2mn 55s
Bit rate mode                            : Variable
Bit rate                                 : 2 501 Kbps
Channel(s)                               : 2 channels
Sampling rate                            : 96.0 KHz
Bit depth                                : 24 bits
Stream size                              : 52.2 MiB (99%)
Writing library                          : libFLAC 1.2.1 (UTC 2007-09-17)

General
Complete name                            : E:\_Upload\Glad Rag Doll Deluxe Edition\17-There Aint No Sweet Man Tha.flac
Format                                   : FLAC
Format/Info                              : Free Lossless Audio Codec
File size                                : 38.5 MiB
Duration                                 : 2mn 6s
Overall bit rate mode                    : Variable
Overall bit rate                         : 2 551 Kbps
Album                                    : Glad Rag Doll (Deluxe Edition)
Album/Performer                          : Diana Krall
Track name                               : There Ain't No Sweet Man That's Worth The Salt Of My Tears (Alternate Version)
Track name/Position                      : 17
Performer                                : Diana Krall
Composer                                 : Fred Fisher
Genre                                    : Jazz
Recorded date                            : 2012
Cover                                    : Yes
Cover type                               : Cover (front)
Cover MIME                               : image/jpeg
HDTRACKS                                 : www.hdtracks.com

Audio
Format                                   : FLAC
Format/Info                              : Free Lossless Audio Codec
Duration                                 : 2mn 6s
Bit rate mode                            : Variable
Bit rate                                 : 2 528 Kbps
Channel(s)                               : 2 channels
Sampling rate                            : 96.0 KHz
Bit depth                                : 24 bits
Stream size                              : 38.2 MiB (99%)
Writing library                          : libFLAC 1.2.1 (UTC 2007-09-17)
Время раздачи: 24/7 (по возможности)
[NNM-Club.ru]_Glad Rag Doll Deluxe Edition.torrent
 Торрент: Платиновая раздача  Зарегистрирован
 
Скачать


Примагнититься
 Зарегистрирован:   21 Окт 2012 20:47:30
 Размер:   1.4 GB  (
 Рейтинг:   4.6 (Голосов: 31)
 Поблагодарили:   166
 Проверка:   Оформление проверено модератором 24 Окт 2012 15:20:37
Как cкачать  ·  Как раздать  ·  Правильно оформить  ·  Поднять ратио!  
VINIL MAN
Виниловый маньяк
Стаж: 14 лет 3 мес.
Сообщений: 8985
Ratio: 93.952
Раздал: 2.963 TB
Поблагодарили: 36899
100%
Откуда: Переяслав
ukraine.gif
Спасибо! Это я удачно зашолЪ! :да:

_________________
Я не собираюсь менять мир, я просто хочу перевязать вам раны... Ян Андерсон
salo197
Только чтение

Online
Стаж: 12 лет 8 мес.
Сообщений: 232
Ratio: 1.16
10.94%
Вот спасибо за 24\96!
Показать сообщения:   
Начать новую тему   Ответить на тему    Торрент-трекер NNM-Club -> HD Audio и Многоканальная Музыка -> WEB-DL-Audio Часовой пояс: GMT + 3
Страница 1 из 1