Классический форум-трекер
canvas not supported
Нас вместе: 4 232 307

Связанные Дакотой / Dakota Bound (2001) DVDRip


 
 
RSS
Начать новую тему   Ответить на тему    Торрент-трекер NNM-Club -> Зарубежное кино -> Зарубежные Фильмы (SD)
Автор Сообщение
eXPpectant ®
Стаж: 14 лет 5 мес.
Сообщений: 2457
Ratio: 1628.264
Раздал: 18.08 TB
Поблагодарили: 308063
100%
Откуда: Нижний Тагил + Дмитров
russia.gif
Связанные Дакотой / Dakota Bound (2001) DVDRip
Страна: Канада, Великобритания
Жанр: Фантастика, Боевик, Приключения, Эротика

Описание:
В будущем из-за тотальных войн и болезней почти все жители Земли были уничтожены. Цивилизации больше нет. Люди разделились на бандитов и их жертв. Несколько юнных учениц одной из частных школ выжили и скрывались в подземном бункере со своей наставницей, думая пережить это безумие. Прошло много лет, но жизнь на Земле стала еще хуже. Умирая наставница Елена поняла, что жизнь под землей не спасет мир и тогда она велела подросшим и окрепшим своим ученицам найти священную гору и жить там сея в мир крохи счастья и добра, дабы мир стал чище и лучше.

Режиссер: Ллойд А. Симандл
Продюсер: Майкл Роджерс, Ллойд А. Симандл
Актеры: Фани Мондей, Эстер Ханука, Джон Комер, Ева Айхмайерова, Ленка Ялинкова, Катрина Цермак, Ольга Шмитова, Элин Спидлова, Дэвид О’Келли, Даниела Крхутова

Продолжительность: 01:32:53
Перевод: Любительский (одноголосый) [А. Харченко] (Агент Смит)




Дата мировой премьеры: 12 ноября 2001

Видео: 688x512 (1.34:1), 25 fps, XviD build 65 ~1844 kbps avg, 0.21 bit/pixel
Аудио 1: 48 kHz, AC3 Dolby Digital, 2/0 (L,R) ch, ~192 kbps RUS
Аудио 2: 48 kHz, AC3 Dolby Digital, 2/0 (L,R) ch, ~192 kbps CZE
Формат субтитров: softsub (SRT)
Код: выделить все
Общее
Полное имя : Белые рабыни-девственницы (драма эротика 2003 год).avi
Формат : AVI
Формат/Информация : Audio Video Interleave
Размер файла : 1,37 Гбайт
Продолжительность : 1 ч. 40 м.
Общий поток : 1944 Кбит/сек
Программа кодирования : VirtualDubMod 1.5.10.3 | www.virtualdub-fr.org || (build 2550/release)
Библиотека кодирования : VirtualDubMod build 2550/release

Видео
Идентификатор : 0
Формат : MPEG-4 Visual
Профиль формата : Advanced Simple@L5
Параметр BVOP формата : 2
Параметр QPel формата : Нет
Параметр GMC формата : Без точки перехода
Параметр матрицы формата : Выборочная
Идентификатор кодека : XVID
Идентификатор кодека/Подсказка : XviD
Продолжительность : 1 ч. 40 м.
Битрейт : 1742 Кбит/сек
Ширина : 656 пикселей
Высота : 352 пикселя
Соотношение сторон : 1,85:1
Частота кадров : 25,000 кадров/сек
Цветовое пространство : YUV
Субдискретизация насыщенности : 4:2:0
Битовая глубина : 8 бит
Тип развёртки : Прогрессивная
Метод сжатия : С потерями
Бит/(Пиксели*Кадры) : 0.302
Размер потока : 1,22 Гбайт (90%)
Библиотека кодирования : XviD 73

Аудио
Идентификатор : 1
Формат : AC-3
Формат/Информация : Audio Coding 3
Расширение режима : CM (complete main)
Параметр Endianness формата : Big
Идентификатор кодека : 2000
Продолжительность : 1 ч. 40 м.
Вид битрейта : Постоянный
Битрейт : 192 Кбит/сек
Каналы : 2 канала
Расположение каналов : Front: L R
Частота : 48,0 КГц
Частота кадров : 31,250 кадров/сек (1536 spf)
Метод сжатия : С потерями
Размер потока : 138 Мбайт (10%)
Выравнивание : Разделение по промежуткам
Продолжительность промежутка : 40 мс. (1,00 видеокадр)
Время предзагрузки промежутка : 500 мс.
Скриншоты:



Время раздачи: 24/7
[NNMClub.to]_Dakota.Bound.2001.DVDRip.torrent
 Торрент: Платиновая раздача  Зарегистрирован
 
Скачать


Примагнититься
 Зарегистрирован:   11 Янв 2021 13:49:27
 Размер:   1.46 GB  (
 Рейтинг:   4.6 (Голосов: 48)
 Поблагодарили:   329
 Проверка:   Оформление проверено модератором 11 Янв 2021 14:31:01
Как cкачать  ·  Как раздать  ·  Правильно оформить  ·  Поднять ратио!  

_________________
пропускная способность канала прямопропорциональна количеству релизов
rezky7
Стаж: 13 лет 10 мес.
Сообщений: 661
Ratio: 10.076
Раздал: 6.322 TB
38.82%
Откуда: Калининградская oбл.
Цитата:
В будущем из-за тотальных войн и болезней почти все жители Земли были уничтожены.

В будущем из-за тотальных войн и болезней почти все МУЖЧИНЫ Земли были уничтожены. :незнает:
Zubov2
Стаж: 12 лет 4 мес.
Сообщений: 566
Ratio: 4.671
Раздал: 6.321 TB
100%
ussr.gif
)))))
gendostat
Стаж: 5 лет
Сообщений: 346
Ratio: 1.334
15.54%
эйй...раздайте быстрее уже весь извелся
den454545
Стаж: 3 года 7 мес.
Сообщений: 47
Ratio: 31.174
18.84%
kazakhstan.gif
gendostat
держите себя в руках :лол:
Prizrak3
 
Стаж: 13 лет
Сообщений: 98
Ratio: 1.58
83.13%
Думаю, что тема сисек раскрыта

_________________
vlad_evp
Uploaders 100+
Стаж: 10 лет 7 мес.
Сообщений: 478
Ratio: 158.564
Поблагодарили: 608
100%
Откуда: Крым, Евпатория
russia.gif
rezky7 писал(а): Перейти к сообщению
В будущем из-за тотальных войн и болезней почти все МУЖЧИНЫ Земли были уничтожены. :незнает:
Какое горе! И что, в кратер насыпать некому?
Сейчас навернется скупая мужская слеза. =)
xploser
Только чтение
Стаж: 14 лет 6 мес.
Сообщений: 635
Ratio: 37.76
Поблагодарили: 177
9.06%
den454545 писал(а): Перейти к сообщению
gendostat
держите себя в руках :лол:


вот как раз в руках они и будут себя держать .
Показать сообщения:   
Начать новую тему   Ответить на тему    Торрент-трекер NNM-Club -> Зарубежное кино -> Зарубежные Фильмы (SD) Часовой пояс: GMT + 3
Страница 1 из 1