Классический форум-трекер
canvas not supported
Нас вместе: 4 233 350

Могучие утята 2 / D2: The Mighty Ducks (1994) [H.264/720p-LQ] HDTVRip


 
 
RSS
Начать новую тему   Ответить на тему    Торрент-трекер NNM-Club -> Зарубежное кино -> Зарубежные Фильмы (HD, FHD)
Автор Сообщение
smpeal ®
Стаж: 11 лет 9 мес.
Сообщений: 62
Ratio: 99.87
Поблагодарили: 7340
100%
ussr.gif
Могучие утята 2 / D2: The Mighty Ducks (1994) [H.264/720p-LQ] HDTVRip
Русское название: Могучие утята 2
Оригинальное название: D2: The Mighty Ducks
Год выпуска: 1994
Жанр: Спорт, Комедия, Семейный

Описание фильма:
Во второй части фильма «Могучие утята» становятся птицами большого полета. Теперь бывшие неудачники — национальная сборная, которая отправляется на Игры доброй Воли в Лос — Анджелес. Гордон Бомбей приглашен тренером в новую команду, где он снова встречает своих старых друзей.

Вместе они прошли огонь и воду. Но в солнечной Калифорнии их ждут еще и медные трубы: юным чемпионам так трудно удержаться от соблазнов беззаботной жизни звезд. Между тем, «Могучим утятам» предстоит ледовое побоище с непобедимой сборной Исландии. На подопечных Гордона смотрит весь мир. Им нельзя проиграть!

Режиссер: Сэм Уайзман
Актеры: Эмилио Эстевез, Кэтрин Эрбе, Майкл Такер, Ян Рубес, Карстен Норгаард, Мария Эллингсен, Джошуа Джексон, Элден Хенсон, Шон Уайсс, Мэтт Доэрти

Продолжительность: 01:42:20
Перевод: Многоголосый закадровый
Релиз группа: Element-Team
Язык субтитров: Английский
Вид субтитров: Вшитые (отключаемые)
Тип субтитров: PGS



Дата мировой премьеры: 25 марта 1994

Видеокодек: AVC / H.264
Битрейт видео: 2879 Kbps
Размер кадра: 1280х720
Качество видео: HDTVRip
Аудио: AC3, 192 Kbps, 2ch: русский многоголосый закадровый (ТНТ)
Общее
Уникальный идентификатор : 206496992033472341182842873178808905665 (0x9B59DFC0F99D53B8B0D784EE09D3EFC1)
Полное имя : Z:\Фильмы с продолжением\Могучие утята\[nnm-club]_THE_MIGHTY_DUCKS_2_HDTVRip.720.mkv
Формат : Matroska
Версия формата : Version 2
Размер файла : 2,17 Гбайт
Продолжительность : 1 ч. 42 м.
Общий поток : 3032 Кбит/сек
Название фильма : THE_MIGHTY_DUCKS-2_HDTVRip.720.Element_team
Дата кодирования : UTC 2012-04-03 08:54:55
Программа кодирования : mkvmerge v4.9.1 ('Ich will') сборка от Jul 11 2011 23:53:15
Библиотека кодирования : libebml v1.2.1 + libmatroska v1.1.1

Видео
Идентификатор : 1
Формат : AVC
Формат/Информация : Advanced Video Codec
Профиль формата : High@L4.1
Параметр CABAC формата : Да
Параметр ReFrames формата : 10 кадров
Режим смешивания : Header stripping
Идентификатор кодека : V_MPEG4/ISO/AVC
Продолжительность : 1 ч. 42 м.
Битрейт : 2879 Кбит/сек
Ширина : 1280 пикселей
Высота : 720 пикселей
Соотношение сторон : 1,85:1
Режим частоты кадров : Постоянный
Частота кадров : 25,000 кадров/сек
Цветовое пространство : YUV
Субдискретизация насыщенности : 4:2:0
Битовая глубина : 8 бит
Тип развёртки : Прогрессивная
Бит/(Пиксели*Кадры) : 0.125
Размер потока : 1,99 Гбайт (92%)
Заголовок : THE_MIGHTY_DUCKS-2_HDTVRip.720.Element_team
Библиотека кодирования : x264 core 120 r2164
Настройки программы : cabac=1 / ref=10 / deblock=1:-3:-3 / analyse=0x3:0x133 / me=umh / subme=9 / psy=1 / psy_rd=2.00:0.20 / mixed_ref=0 / me_range=16 / chroma_me=1 / trellis=1 / 8x8dct=1 / cqm=0 / deadzone=21,12 / fast_pskip=1 / chroma_qp_offset=-3 / threads=12 / sliced_threads=0 / nr=1 / decimate=1 / interlaced=0 / bluray_compat=0 / constrained_intra=0 / bframes=3 / b_pyramid=2 / b_adapt=2 / b_bias=0 / direct=3 / weightb=1 / open_gop=1 / weightp=2 / keyint=250 / keyint_min=25 / scenecut=40 / intra_refresh=0 / rc_lookahead=60 / rc=abr / mbtree=1 / bitrate=2879 / ratetol=1.0 / qcomp=0.80 / qpmin=1 / qpmax=69 / qpstep=4 / vbv_maxrate=24000 / vbv_bufsize=24000 / nal_hrd=none / ip_ratio=1.40 / aq=1:1.30
Default : Да
Forced : Нет

Аудио
Идентификатор : 2
Формат : AC-3
Формат/Информация : Audio Coding 3
Расширение режима : CM (complete main)
Параметр Endianness формата : Big
Режим смешивания : Header stripping
Идентификатор кодека : A_AC3
Продолжительность : 1 ч. 42 м.
Вид битрейта : Постоянный
Битрейт : 192 Кбит/сек
Каналы : 2 канала
Расположение каналов : Front: L R
Частота : 44,1 КГц
Битовая глубина : 16 бит
Метод сжатия : С потерями
Задержка видео : 40 мс.
Размер потока : 141 Мбайт (6%)
Заголовок : AC3, 2/0 (L,R) ch, ~192.00 kbps avg |Многоголосый закадровый ТНТ|
Язык : Russian
Default : Да
Forced : Нет

Текст
Идентификатор : 3
Формат : PGS
Режим смешивания : zlib
Идентификатор кодека : S_HDMV/PGS
Идентификатор кодека/Информация : The same subtitle format used on BDs/HD-DVDs
Язык : English
Default : Да
Forced : Нет
Скриншоты:




Время раздачи: По выходным 12-24, иногда вечером в будни
[NNM-Club.ru]_THE_MIGHTY_DUCKS_2_HDTVRip.720.mkv.torrent
 Торрент: Платиновая раздача  Зарегистрирован
 
Скачать


Примагнититься
 Зарегистрирован:   28 Окт 2012 21:41:10
 Размер:   2.17 GB  (
 Рейтинг:   4.7 (Голосов: 13)
 Поблагодарили:   30
 Проверка:   Оформление проверено модератором 28 Окт 2012 23:10:07
Как cкачать  ·  Как раздать  ·  Правильно оформить  ·  Поднять ратио!  
Показать сообщения:   
Начать новую тему   Ответить на тему    Торрент-трекер NNM-Club -> Зарубежное кино -> Зарубежные Фильмы (HD, FHD) Часовой пояс: GMT + 3
Страница 1 из 1