Классический форум-трекер
canvas not supported
Нас вместе: 4 233 354

Могучие утята 3 / D3: The Mighty Ducks (1996) [H.264/720p-LQ] HDTVRip


 
 
RSS
Начать новую тему   Ответить на тему    Торрент-трекер NNM-Club -> Зарубежное кино -> Зарубежные Фильмы (HD, FHD)
Автор Сообщение
smpeal ®
Стаж: 11 лет 9 мес.
Сообщений: 62
Ratio: 99.87
Поблагодарили: 7340
100%
ussr.gif
Могучие утята 3 / D3: The Mighty Ducks (1996) [H.264/720p-LQ] HDTVRip
Русское название: Могучие утята 3
Оригинальное название: D3: The Mighty Ducks
Год выпуска: 1996
Жанр: Драма, Комедия, Спорт, Семейный

Описание фильма:
Ребята из команды «Уток» поступили в престижный колледж. Там уже есть своя хоккейная команда старшеклассников. В борьбе за лидерство все средства хороши: сплетни, интриги и сексуальная соседка…

Режиссер: Роберт Либерман
Актеры: Эмилио Эстевез, Джеффри Нордлинг, Дэвид Селби, Хайди Клинг, Джошуа Джексон, Джосс Экленд, Элден Хенсон, Шон Уайсс, Винсент Ларуссо, Мэтт Доэрти

Продолжительность: 01:39:37
Перевод: Многоголосый закадровый
Релиз группа: Element-Team
Язык субтитров: Английский
Вид субтитров: Вшитые (отключаемые)
Тип субтитров: PGS



Дата мировой премьеры: 4 октября 1996

Видеокодек: AVC / H.264
Битрейт видео: 3000 Kbps
Размер кадра: 1280х720
Качество видео: HDTVRip
Аудио: AC3, 192 Kbps, 2ch: русский многоголосый закадровый (ТНТ)
Общее
Уникальный идентификатор : 234474483467825634708820147084447393299 (0xB0662494797AC4ECB0DE9353A9DF2613)
Полное имя : Z:\Фильмы с продолжением\Могучие утята\[nnm-club]_THE_MIGHTY_DUCKS_3_HDTVRip.720.mkv
Формат : Matroska
Версия формата : Version 2
Размер файла : 2,20 Гбайт
Продолжительность : 1 ч. 39 м.
Общий поток : 3162 Кбит/сек
Название фильма : THE_MIGHTY_DUCKS-3_HDTVRip.720.Element_team
Дата кодирования : UTC 2012-04-04 07:05:58
Программа кодирования : mkvmerge v4.9.1 ('Ich will') сборка от Jul 11 2011 23:53:15
Библиотека кодирования : libebml v1.2.1 + libmatroska v1.1.1

Видео
Идентификатор : 1
Формат : AVC
Формат/Информация : Advanced Video Codec
Профиль формата : High@L4.1
Параметр CABAC формата : Да
Параметр ReFrames формата : 10 кадров
Режим смешивания : Header stripping
Идентификатор кодека : V_MPEG4/ISO/AVC
Продолжительность : 1 ч. 39 м.
Битрейт : 3000 Кбит/сек
Ширина : 1280 пикселей
Высота : 720 пикселей
Соотношение сторон : 1,85:1
Режим частоты кадров : Постоянный
Частота кадров : 25,000 кадров/сек
Цветовое пространство : YUV
Субдискретизация насыщенности : 4:2:0
Битовая глубина : 8 бит
Тип развёртки : Прогрессивная
Бит/(Пиксели*Кадры) : 0.130
Размер потока : 2,02 Гбайт (92%)
Заголовок : THE_MIGHTY_DUCKS-3_HDTVRip.720.Element_team
Библиотека кодирования : x264 core 120 r2164
Настройки программы : cabac=1 / ref=10 / deblock=1:-3:-3 / analyse=0x3:0x133 / me=esa / subme=9 / psy=1 / psy_rd=2.00:0.20 / mixed_ref=0 / me_range=16 / chroma_me=1 / trellis=1 / 8x8dct=1 / cqm=0 / deadzone=21,12 / fast_pskip=1 / chroma_qp_offset=-3 / threads=12 / sliced_threads=0 / nr=1 / decimate=1 / interlaced=0 / bluray_compat=0 / constrained_intra=0 / bframes=3 / b_pyramid=2 / b_adapt=2 / b_bias=0 / direct=3 / weightb=1 / open_gop=1 / weightp=0 / keyint=250 / keyint_min=25 / scenecut=40 / intra_refresh=0 / rc_lookahead=60 / rc=abr / mbtree=1 / bitrate=3000 / ratetol=1.0 / qcomp=0.80 / qpmin=1 / qpmax=69 / qpstep=4 / vbv_maxrate=24000 / vbv_bufsize=24000 / nal_hrd=none / ip_ratio=1.40 / aq=1:1.30
Язык : English
Default : Да
Forced : Нет

Аудио
Идентификатор : 2
Формат : AC-3
Формат/Информация : Audio Coding 3
Расширение режима : CM (complete main)
Параметр Endianness формата : Big
Режим смешивания : Header stripping
Идентификатор кодека : A_AC3
Продолжительность : 1 ч. 39 м.
Вид битрейта : Постоянный
Битрейт : 192 Кбит/сек
Каналы : 2 канала
Расположение каналов : Front: L R
Частота : 48,0 КГц
Битовая глубина : 16 бит
Метод сжатия : С потерями
Задержка видео : 40 мс.
Размер потока : 137 Мбайт (6%)
Заголовок : AC3, 2/0 (L,R) ch, ~192.00 kbps avg |Многоголосый закадровый ТНТ|
Язык : Russian
Default : Да
Forced : Нет

Текст
Идентификатор : 3
Формат : PGS
Режим смешивания : zlib
Идентификатор кодека : S_HDMV/PGS
Идентификатор кодека/Информация : The same subtitle format used on BDs/HD-DVDs
Язык : English
Default : Да
Forced : Нет
Скриншоты:




Время раздачи: По выходным 12-24, иногда вечером в будни
[NNM-Club.ru]_THE_MIGHTY_DUCKS_3_HDTVRip.720.mkv.torrent
 Торрент: Платиновая раздача  Зарегистрирован
 
Скачать


Примагнититься
 Зарегистрирован:   28 Окт 2012 22:24:26
 Размер:   2.2 GB  (
 Рейтинг:   4.9 (Голосов: 15)
 Поблагодарили:   38
 Проверка:   Оформление проверено модератором 28 Окт 2012 23:15:28
Как cкачать  ·  Как раздать  ·  Правильно оформить  ·  Поднять ратио!  
JOKER37773
Стаж: 13 лет 7 мес.
Сообщений: 326
Ratio: 32.806
Раздал: 58.13 TB
Поблагодарили: 28
100%
Откуда: Земля
russia.gif
ну что раздача будет уже 12 часов жду
Показать сообщения:   
Начать новую тему   Ответить на тему    Торрент-трекер NNM-Club -> Зарубежное кино -> Зарубежные Фильмы (HD, FHD) Часовой пояс: GMT + 3
Страница 1 из 1