Классический форум-трекер
canvas not supported
Нас вместе: 4 235 010

Горбун / Le Bossu (1959) BDRip


 
 
RSS
Начать новую тему   Ответить на тему    Торрент-трекер NNM-Club -> Архив торрентов -> Архив Классики кино и Старых фильмов до 90-х
Автор Сообщение
art-61 ®
Стаж: 13 лет 1 мес.
Сообщений: 1094
Ratio: 116.618
Поблагодарили: 143548
100%
Откуда: Санкт-Петербург
russia.gif
Горбун / Le Bossu (1959) BDRip
Русское название: Горбун
Оригинальное название: Le Bossu
Год выпуска: 1959
Производство: Италия, Франция, Globe Films International, P.A.C.
Жанр: Приключения, исторический

Перевод: Дублированный, профессиональный многоголосый, профессиональный двухголосый

Дата мировой премьеры: 26 ноября 1959

Режиссер: Андре Юнебелль
Продюсер: Пол Кадеак
Актеры: Жан Марэ, Бурвиль, Забине Зессельманн, Жан Ле Пулен, Юбер Ноэль, Полетт Дюбо, Эдмон Бошан, Александр Риньо, Поль Камбо, Жорж Дукинг, Анни Андерсон, Франсуа Шометт, Рауль Бийре, Барбара Круз, Розита Фернандез, Ги Делорм, Пакеретт, Жан Ружери, Эдмон Тамиз, Ален Ноби, Бернар Деран, Рене Руссель, Жан-Мишель Рузьер, Франсуаз Дельдик, Моника Жюст

Описание фильма:
Эта история началась в 1701 году, когда Францией правил «Король-Солнце» Людовик XIV. Шевалье Ля Гардер спасает от расправы слуг герцога де Гонзага дочь смертельно раненного принца Филипа Де Невера и скрывается с грудным ребенком от преследования в Испании. Он и его верный слуга Паспуаль воспитывают девочку Аврору в течение пятнадцати лет. В 1716 году, вернувшись в Париж, шевалье переодевается горбуном, чтобы войти в доверие к высокопоставленным вельможам во дворце короля, ведь его горб приносит счастье. Благодаря своей хитрости, умению перевоплощаться и острому клинку шпаги, герой разрушает все коварные замыслы врагов и спасает честь семьи своей приемной дочери...



Продолжительность: 02:16:17
Качество видео: BDRip | исх. Blu-Ray (1080p)

Видеокодек: Xvid
Битрейт видео: 1815 Кбит/с
Размер кадра: 720х304
Аудио 1: Русский (АС3, 2 ch, 192 Кбит/с) Дублированный (В советском прокате вырезанных сценах - профессиональный многоголосый)
Аудио 2: Русский (АС3, 2 ch, 192 Кбит/с) Профессиональный многоголосый, (Студия "Кравец")
Аудио 3: Русский (АС3, 2 ch, 192 Кбит/с) Профессиональный двухголосый, (Светла)
Аудио 4: Русский (АС3, 2 ch, 192 Кбит/с) Профессиональный многоголосый, (ТВ Центр)
Аудио 5: Французский (АС3, 2 ch, 192 Кбит/с) Оригинал
Общее
Полное имя : E:\Gorbun.1959.XviD.BDRip.avi
Формат : AVI
Формат/Информация : Audio Video Interleave
Профиль формата : OpenDML
Размер файла : 2,06 Гбайт
Продолжительность : 1 ч. 44 м.
Общий поток : 2811 Кбит/сек
Режиссёр : Release by ==nnlabetik==
Программа кодирования : VirtualDubMod 1.5.10.2 (build 2540/release)
Библиотека кодирования : VirtualDubMod build 2540/release

Видео
Идентификатор : 0
Формат : MPEG-4 Visual
Профиль формата : Advanced Simple@L5
Параметр BVOP формата : 1
Параметр QPel формата : Нет
Параметр GMC формата : Без точки перехода
Параметр матрицы формата : Default (MPEG)
Идентификатор кодека : XVID
Идентификатор кодека/Подсказка : XviD
Продолжительность : 1 ч. 44 м.
Битрейт : 1815 Кбит/сек
Ширина : 720 пикселей
Высота : 304 пикселя
Соотношение сторон : 2,35:1
Частота кадров : 24,000 кадра/сек
Цветовое пространство : YUV
Субдискретизация насыщенности : 4:2:0
Битовая глубина : 8 бит
Тип развёртки : Прогрессивная
Метод сжатия : С потерями
Бит/(Пиксели*Кадры) : 0.345
Размер потока : 1,33 Гбайт (65%)
Библиотека кодирования : XviD 1.2.1 (UTC 2008-12-04)

Аудио #1
Идентификатор : 1
Формат : AC-3
Формат/Информация : Audio Coding 3
Профиль формата : Dolby Digital
Расширение режима : CM (complete main)
Параметр Endianness формата : Big
Идентификатор кодека : 2000
Продолжительность : 1 ч. 44 м.
Вид битрейта : Постоянный
Битрейт : 192 Кбит/сек
Каналы : 2 канала
Расположение каналов : Front: L R
Частота : 48,0 КГц
Битовая глубина : 16 бит
Метод сжатия : С потерями
Размер потока : 144 Мбайт (7%)
Выравнивание : Разделение по промежуткам
Продолжительность промежутка : 42 мс. (1,00 видеокадр)
Время предзагрузки промежутка : 500 мс.

Аудио #2
Идентификатор : 2
Формат : AC-3
Формат/Информация : Audio Coding 3
Профиль формата : Dolby Digital
Расширение режима : CM (complete main)
Параметр Endianness формата : Big
Идентификатор кодека : 2000
Продолжительность : 1 ч. 44 м.
Вид битрейта : Постоянный
Битрейт : 192 Кбит/сек
Каналы : 2 канала
Расположение каналов : Front: L R
Частота : 48,0 КГц
Битовая глубина : 16 бит
Метод сжатия : С потерями
Размер потока : 144 Мбайт (7%)
Выравнивание : Разделение по промежуткам
Продолжительность промежутка : 42 мс. (1,00 видеокадр)
Время предзагрузки промежутка : 500 мс.

Аудио #3
Идентификатор : 3
Формат : AC-3
Формат/Информация : Audio Coding 3
Профиль формата : Dolby Digital
Расширение режима : CM (complete main)
Параметр Endianness формата : Big
Идентификатор кодека : 2000
Продолжительность : 1 ч. 44 м.
Вид битрейта : Постоянный
Битрейт : 192 Кбит/сек
Каналы : 2 канала
Расположение каналов : Front: L R
Частота : 48,0 КГц
Битовая глубина : 16 бит
Метод сжатия : С потерями
Размер потока : 144 Мбайт (7%)
Выравнивание : Разделение по промежуткам
Продолжительность промежутка : 42 мс. (1,00 видеокадр)
Время предзагрузки промежутка : 500 мс.

Аудио #4
Идентификатор : 4
Формат : AC-3
Формат/Информация : Audio Coding 3
Профиль формата : Dolby Digital
Расширение режима : CM (complete main)
Параметр Endianness формата : Big
Идентификатор кодека : 2000
Продолжительность : 1 ч. 44 м.
Вид битрейта : Постоянный
Битрейт : 192 Кбит/сек
Каналы : 2 канала
Расположение каналов : Front: L R
Частота : 48,0 КГц
Битовая глубина : 16 бит
Метод сжатия : С потерями
Размер потока : 144 Мбайт (7%)
Выравнивание : Разделение по промежуткам
Продолжительность промежутка : 42 мс. (1,00 видеокадр)
Время предзагрузки промежутка : 500 мс.

Аудио #5
Идентификатор : 5
Формат : AC-3
Формат/Информация : Audio Coding 3
Расширение режима : CM (complete main)
Параметр Endianness формата : Big
Идентификатор кодека : 2000
Продолжительность : 1 ч. 44 м.
Вид битрейта : Постоянный
Битрейт : 192 Кбит/сек
Каналы : 1 канал
Расположение каналов : Front: C
Частота : 48,0 КГц
Битовая глубина : 16 бит
Метод сжатия : С потерями
Размер потока : 144 Мбайт (7%)
Выравнивание : Разделение по промежуткам
Продолжительность промежутка : 42 мс. (1,00 видеокадр)
Время предзагрузки промежутка : 500 мс.
Скриншоты:


Время раздачи: 24/7
[NNM-Club.ru]_Gorbun.1959.XviD.BDRip.avi.torrent
 Торрент: Платиновая раздача  Зарегистрирован
 
Скачать


Примагнититься
 Зарегистрирован:   29 Окт 2012 16:07:05
 Размер:   2.06 GB  (
 Рейтинг:   4.8 (Голосов: 46)
 Поблагодарили:   121
 Проверка:   Оформление проверено модератором 29 Окт 2012 23:52:04
Как cкачать  ·  Как раздать  ·  Правильно оформить  ·  Поднять ратио!  
NikkB
Стаж: 12 лет 11 мес.
Сообщений: 26
Ratio: 2.752
100%
belarus.gif
Спасибо за качественный рип!
albro
Стаж: 13 лет 2 мес.
Сообщений: 6
Ratio: 1.718
27.43%
Благодарю! приглашу предков на просмотр )) и самому будет по кайфу от их переживаний, ностальгии , шуток...
Топик был перенесен из форума Зарубежная Классика (SD) в форум Архив Классики кино и Старых фильмов до 90-х

Причина переноса: Длительное отсутствие сида на протяжении более 6 месяцев.

Исправил релиз - напиши ЛС Alone_Kedr, дав ссылку на релиз.
Если нет ответа 24 часа - нажми на кнопку "Обратить внимание модераторов".
Показать сообщения:   
Начать новую тему   Ответить на тему    Торрент-трекер NNM-Club -> Архив торрентов -> Архив Классики кино и Старых фильмов до 90-х Часовой пояс: GMT + 3
Страница 1 из 1