Классический форум-трекер
canvas not supported
Нас вместе: 4 172 804

Речные Лещи / Rzeczne Leszcze (2006) DVDRip


 
 
RSS
Начать новую тему   Ответить на тему    Торрент-трекер NNM-Club -> Спорт и активный отдых -> Рыбалка и Охота
Автор Сообщение
nikolajjj111 ®
Гость
Речные Лещи / Rzeczne Leszcze (2006) DVDRip
Производство: Польша
Жанр: Спорт, Рыбалка

Участники: Wolf Rudiger Kremkus, Krzysztof Nowaczyk

Описание:
Два польских рыболова высшего экстра-класса решили просветить своих коллег по рыбалке и поделиться своими знаниями в области ловли интересной и сильной рыбы - речного леща. А имея за своими плечами огромный опыт международных соревнований, являясь экспертами в области рыболовных снастей, рассказать им есть о чём.
Польские рыболовы с большой охотой делятся секретами и хитростями подготовки снастей для ловли речного леща. Они расскажут, как необходимо оснащать снасти, какая подготовка ведётся перед ловлей леща. Речь зайдёт и о повадках, предпочтениях в приманке и наживке этой рыбы, местах её обитания.
Интересный во всех отношениях видеофильм о ловле речного леща на одной из польских рек в период половодья. Обязателен истинным рыболовам для просмотра и сравнения способов и приёмов рыбалки в Европе с отечественной.

Продолжительность: 00:56:22
Перевод: Русский одноголосый

Видео: MPEG-4, 480x360, 470 Kbps
Аудио: AAC, 2 ch, 96 Kbps
Код: выделить все
Общее
Полное имя                               : re4nie lecshi[nnm-club.me].mp4
Формат                                   : MPEG-4
Профиль формата                          : Base Media / Version 2
Идентификатор кодека                     : mp42 (isom/mp42)
Размер файла                             : 229 Мбайт
Продолжительность                        : 56 м. 22 с.
Режим общего битрейта                    : Переменный
Общий поток                              : 568 Кбит/сек
Дата кодирования                         : UTC 2014-10-05 01:31:47
Дата пометки                             : UTC 2014-10-05 01:31:47

Видео
Идентификатор                            : 1
Формат                                   : AVC
Формат/Информация                        : Advanced Video Codec
Профиль формата                          : Baseline@L2.1
Настройки формата                        : 1 Ref Frames
Параметр CABAC формата                   : Нет
Параметр RefFrames формата               : 1 кадр
Идентификатор кодека                     : avc1
Идентификатор кодека/Информация          : Advanced Video Coding
Продолжительность                        : 56 м. 22 с.
Битрейт                                  : 470 Кбит/сек
Максимальный битрейт                     : 1543 Кбит/сек
Ширина                                   : 480 пикселей
Высота                                   : 360 пикселей
Соотношение сторон                       : 4:3
Режим частоты кадров                     : Постоянный
Частота кадров                           : 25,000 кадров/сек
Цветовое пространство                    : YUV
Субдискретизация насыщенности            : 4:2:0
Битовая глубина                          : 8 бит
Тип развёртки                            : Прогрессивная
Бит/(Пиксели*Кадры)                      : 0.109
Размер потока                            : 189 Мбайт (83%)
Дата пометки                             : UTC 2014-10-05 01:32:03

Аудио
Идентификатор                            : 2
Формат                                   : AAC
Формат/Информация                        : Advanced Audio Codec
Профиль формата                          : LC
Идентификатор кодека                     : mp4a-40-2
Продолжительность                        : 56 м. 22 с.
Вид битрейта                             : Переменный
Битрейт                                  : 96,0 Кбит/сек
Максимальный битрейт                     : 104 Кбит/сек
Каналы                                   : 2 канала
Расположение каналов                     : Front: L R
Частота                                  : 44,1 КГц
Частота кадров                           : 43,066 кадра/сек (1024 SPF)
Метод сжатия                             : С потерями
Размер потока                            : 38,7 Мбайт (17%)
Заголовок                                : IsoMedia File Produced by Google, 5-11-2011
Дата кодирования                         : UTC 2014-10-05 01:31:56
Дата пометки                             : UTC 2014-10-05 01:32:03
Скриншоты:

Все одноименные фильмы в клубе
Время раздачи: с 9:00~22:00
[NNMClub.to]_re4nie lecshi[nnm-club.ru].mp4.torrent
 Торрент: Платиновая раздача  Зарегистрирован
 
Скачать


Примагнититься
 Зарегистрирован:   27 Окт 2019 07:25:24
 Размер:   229 MB  (
 Рейтинг:   4.7 (Голосов: 24)
 Поблагодарили:   146
 Проверка:   Оформление проверено модератором 27 Окт 2019 08:31:20
Как cкачать  ·  Как раздать  ·  Правильно оформить  ·  Поднять ратио!  
nikolajjj111 ®
Гость
Всем приятного просмотра.
Андрей-578578
Стаж: 12 лет 7 мес.
Сообщений: 3
Ratio: 34.91
40%
Откуда: Москва
russia.gif
Кстати очень неплохой обучающий фильмец!

_________________
fog1
Стаж: 11 лет 11 мес.
Сообщений: 8
Ratio: 6.789
100%
ukraine.gif
неплохо :стеб: javascript:emoticon(':стеб:')
justem
Стаж: 11 лет 2 мес.
Сообщений: 10
Ratio: 5.384
10.96%
Откуда: КИЕВ
ukraine.gif
Сам не понял,о чем они :стрельба:

Добавлено спустя 1 минуту 6 секунд:

Кто знает фильмцы про рыбалку в Киеве? За ранее респект.
tutsan
Стаж: 11 лет
Сообщений: 59
Ratio: 14.434
Поблагодарили: 4
100%
ussr.gif
отлично! а что ещё посоветуете на эту тему?
Romsess
Стаж: 9 лет 10 мес.
Сообщений: 123
Ratio: 66.258
100%
Спасибо!
Kalex
Администратор
Стаж: 14 лет 3 мес.
Сообщений: 39744
Ratio: 120.231
Поблагодарили: 14172
100%
nnm-club.gif
Торрент перерегистрирован в рамках акции Включаем DHT в древних раздачах
Теперь вам нужно его скачать и открыть в торрент-клиенте, указав в качестве места сохранения раздаваемый файл или папку.

_________________
NNMClub и IPv6/Teredo
... если преступников недостаточно, их надо создавать. Кому нужна нация, состоящая сплошь из законопослушных граждан? Какая от нее польза? А вот издайте законы, которые нельзя ни соблюдать, ни проводить в жизнь, ни объективно трактовать, и вы получите нацию нарушителей, а значит, сможете заработать на преступлениях... /Айн Рэнд, «Атлант расправил плечи»/
Показать сообщения:   
Начать новую тему   Ответить на тему    Торрент-трекер NNM-Club -> Спорт и активный отдых -> Рыбалка и Охота Часовой пояс: GMT + 3
Страница 1 из 1