Классический форум-трекер
canvas not supported
Нас вместе: 4 210 919

Хороший доктор / The Good Doctor (2011) BDRip [720p] [EN / En Sub]


 
 
RSS
Начать новую тему   Ответить на тему    Торрент-трекер NNM-Club -> Архив торрентов -> Архив Видео
Автор Сообщение
smaster67 ®
Покровитель талантов Uploader 300+
Стаж: 13 лет 4 мес.
Сообщений: 7097
Ratio: 210.294
Поблагодарили: 217955
100%
Хороший доктор / The Good Doctor (2011) BDRip [720p] [EN / En Sub]
Русское название: Хороший доктор
Оригинальное название: The Good Doctor
Год выпуска: 2011
Жанр: Триллер, Драма

Описание фильма:
Молодой врач стремится произвести впечатление на свое начальство и коллег. Когда в клинику, где он работает, попадает 18-летняя пациентка с инфекцией почек, доктор вмешивается в ее лечение, чтобы надолго оставить девушку в больнице.

Режиссер: Лэнс Дэйли
Актеры: Орландо Блум, Райли Кеох, Тараджи П. Хенсон, Роб Морроу, Майкл Пенья

Продолжительность: 01:30:51
Перевод: Отсутствует
Язык: Английский
Язык субтитров: Английский
Вид субтитров: Вшитые, отключаемые



Видеокодек: MPEG-4 AVC/H.264
Битрейт видео: ~5 373 Kbps
Размер кадра: 1280x696
Качество видео: BDRip
Аудиокодек: DTS : 6 channels
Битрейт аудио: 1 510 Kbps
Сэмпл: Ссылка
General
Complete name The Good Doctor.mkv
Format : Matroska
Format version : Version 2
File size : 4.36 GiB
Duration : 1h 30mn
Overall bit rate : 6 877 Kbps
Writing application : mkvmerge v4.1.1 built on Jul 3 2010 22:54:08
Writing library : libebml v1.0.0 + libmatroska v1.0

Video
ID : 1
Format : AVC
Format/Info : Advanced Video Codec
Format profile : High@L4.1
Format settings, CABAC : Yes
Format settings, ReFrames : 5 frames
Codec ID : V_MPEG4/ISO/AVC
Duration : 1h 30mn
Bit rate : 5 373 Kbps
Width : 1 280 pixels
Height : 696 pixels
Display aspect ratio : 1.85:1
Frame rate : 23.976 fps
Color space : YUV
Chroma subsampling : 4:2:0
Bit depth : 8 bits
Scan type : Progressive
Bits/(Pixel*Frame) : 0.252
Stream size : 3.32 GiB (76%)
Default : Yes
Forced : No

Audio
ID : 2
Format : DTS
Format/Info : Digital Theater Systems
Codec ID : A_DTS
Duration : 1h 30mn
Bit rate mode : Constant
Bit rate : 1 510 Kbps
Channel(s) : 6 channels
Channel positions : Front: L C R, Side: L R, LFE
Sampling rate : 48.0 KHz
Bit depth : 24 bits
Compression mode : Lossy
Stream size : 981 MiB (22%)
Title : DTS
Language : English
Default : Yes
Forced : No

Text
ID : 3
Format : UTF-8
Codec ID : S_TEXT/UTF8
Codec ID/Info : UTF-8 Plain Text
Title : English
Language : English
Default : No
Forced : No
Скриншоты:


Время раздачи: с 13:00 до 23:00
 Торрент: Платиновая раздача  Зарегистрирован
 
Скачать


Примагнититься
 Зарегистрирован:   01 Дек 2012 00:47:31
 Размер:   4.36 GB  (
 Рейтинг:    (Голосов: 6)
 Поблагодарили:   20
 Проверка:   Оформление проверено модератором 01 Дек 2012 10:55:55
Как cкачать  ·  Как раздать  ·  Правильно оформить  ·  Поднять ратио!  
Топик был перенесен из форума Фильмы в оригинале (HD) в форум Архив Видео


batonchik
Показать сообщения:   
Начать новую тему   Ответить на тему    Торрент-трекер NNM-Club -> Архив торрентов -> Архив Видео Часовой пояс: GMT + 3
Страница 1 из 1