Классический форум-трекер
canvas not supported
Нас вместе: 4 206 140

Don Ray Band - Lonesome Rider (2010) [APE|Lossless]<Blues-Rock>


 
 
RSS
Начать новую тему   Ответить на тему    Торрент-трекер NNM-Club -> Jazz, Blues, Soul -> Blues, Soul (Lossless)
Автор Сообщение
znn62 ®
Релизер Джаза
Стаж: 13 лет 4 мес.
Сообщений: 3076
Ratio: 34.563
Раздал: 19.22 TB
Поблагодарили: 79232
100%
ussr.gif
Don Ray Band - Lonesome Rider (2010)
Год: 2010
Жанр: Blues-Rock
Продолжительность: 00:53:47

Кодек: APE
Битрейт: Lossless

Трек лист:
01. The Trigger
02. Monday Morning News
03. Love Is
04. Ball And Chain
05. Victim Of Passion
06. So Far Away
07. In Your Eyes
08. The Ruckus Room
09. A Woman Becomes The Blues
10. Poison
11. Gone Nowhere
12. Lonesome Rider
Код:

Exact Audio Copy V0.99 prebeta 4 from 23. January 2008

Отчёт EAC об извлечении, выполненном 11. октября 2010, 0:41

Don Ray Band / Lonesome Rider

Дисковод: PLEXTOR DVDR   PX-820A   Adapter: 3  ID: 1

Режим чтения                 : Достоверность
Использование точного потока : Да
Отключение кэша аудио        : Да
Использование указателей C2  : Нет

Коррекция смещения при чтении                     : 48
Способность читать области Lead-in и Lead-out     : Нет
Заполнение пропущенных сэмплов тишиной            : Да
Удаление блоков с тишиной в начале и конце        : Нет
При вычислениях CRC использовались нулевые сэмплы : Да
Интерфейс                                         : Встроенный Win32-интерфейс для Win NT/2000

Выходной формат : Внутренние WAV-операции
Формат сэмплов  : 44.100 Гц; 16 бит; стерео

TOC извлечённого CD

     Трек |   Старт  | Длительность | Начальный сектор | Конечный сектор
    ---------------------------------------------------------------------
       1  |  0:00.00 |    3:29.48   |           0      |      15722
       2  |  3:29.48 |    4:43.52   |       15723      |      36999
       3  |  8:13.25 |    5:22.39   |       37000      |      61188
       4  | 13:35.64 |    4:34.48   |       61189      |      81786
       5  | 18:10.37 |    4:47.00   |       81787      |     103311
       6  | 22:57.37 |    5:51.45   |      103312      |     129681
       7  | 28:49.07 |    3:30.68   |      129682      |     145499
       8  | 32:20.00 |    4:10.06   |      145500      |     164255
       9  | 36:30.06 |    4:48.29   |      164256      |     185884
      10  | 41:18.35 |    3:49.13   |      185885      |     203072
      11  | 45:07.48 |    3:36.62   |      203073      |     219334
      12  | 48:44.35 |    5:03.00   |      219335      |     242059

Характеристики диапазона извлечения и сообщения об ошибках

Выбранный диапазон

     Имя файла D:\КОЛЛЕКЦИЯ 7\DON RAY BAND\Don Ray Band - Lonesome Rider.wav

     Пиковый уровень 100.0 %
     Качество диапазона 100.0 %
     CRC копии 334A621D
     Копирование... OK

Ошибок не произошло

AccurateRip: сводка

Трек  1  нет в базе данных
Трек  2  нет в базе данных
Трек  3  нет в базе данных
Трек  4  нет в базе данных
Трек  5  нет в базе данных
Трек  6  нет в базе данных
Трек  7  нет в базе данных
Трек  8  нет в базе данных
Трек  9  нет в базе данных
Трек 10  нет в базе данных
Трек 11  нет в базе данных
Трек 12  нет в базе данных

Ни одного трека нет в базе AccurateRip

Конец отчёта
Код:

-----------------------

DON'T MODIFY THIS FILE

-----------------------

PERFORMER: auCDtect Task Manager, ver. 1.5.1RC6 build 1.5.1.7
Copyright (c) 2008-2010 y-soft. All rights reserved
http://y-soft.org

ANALYZER: auCDtect: CD records authenticity detector, version 0.8.2
Copyright (c) 2004 Oleg Berngardt. All rights reserved.
Copyright (c) 2004 Alexander Djourik. All rights reserved.

FILE: Don Ray Band - Lonesome Rider.ape
  Size: 369710304 Hash: 7467644E4FEE2A766E9F722532A6B137 Accuracy: -m0
  Conclusion: CDDA 100%
  Signature: 6F59928C1F83D09DE3DDD00B8FF0BD3FB6857CF8
Время раздачи: 17-24
[NNM-Club.ru]_Don Ray Band - Lonesome Rider(nnm).torrent
 Торрент: Платиновая раздача  Зарегистрирован
 
Скачать


 Зарегистрирован:   31 Дек 2012 19:05:28
 Размер:   360 MB  (
 Рейтинг:    (Голосов: 8)
 Поблагодарили:   36
 Проверка:   Оформление проверено модератором 31 Дек 2012 20:56:48
Как cкачать  ·  Как раздать  ·  Правильно оформить  ·  Поднять ратио!  
Показать сообщения:   
Начать новую тему   Ответить на тему    Торрент-трекер NNM-Club -> Jazz, Blues, Soul -> Blues, Soul (Lossless) Часовой пояс: GMT + 3
Страница 1 из 1