Классический форум-трекер
canvas not supported
Нас вместе: 4 172 692

Demons & Wizards - Touched By The Crimson King (2005) [FLAC|Lossless]<Heavy Metal>


 
 
RSS
Начать новую тему   Ответить на тему    Торрент-трекер NNM-Club -> Rock, Alternative, Punk, Metal -> Metal (Lossless)
Автор Сообщение
gatherone ®
RG Music
Стаж: 9 лет 4 мес.
Сообщений: 2715
Ratio: 174.612
Поблагодарили: 73728
8.77%
Demons & Wizards - Touched By The Crimson King (2005)
Год: 2005
Жанр: Heavy Metal
Продолжительность: 01:06:46

Кодек: FLAC
Битрейт: Lossless
Источник: CD из личной коллекции
Scans: Complete (png 300 dpi) + matrix
Label & Catalog #: STEAMHAMMER / SPV / Soyuz - SPV 085-99492 CD
Треклист:
01. Crimson King [05:47]
02. Beneath These Waves [05:12]
03. Terror Train [04:46]
04. Seize the Day [05:22]
05. The Gunslinger [05:15]
06. Love's Tragedy Asunder [05:28]
07. Wicked Witch [03:32]
08. Dorian [06:36]
09. Down Where I Am [04:54]
10. Immigrant Song [02:28]
11. Lunar Lament [04:02]
12. Wicked Witch (slow version) [03:54]
13. Spatial Architects [05:44]
14. Beneath These Waves (edit) [03:40]
Код: выделить все

Exact Audio Copy V1.3 from 2. September 2016

EAC extraction logfile from 22. December 2019, 21:41

Demons & Wizards / Touched by the Crimson King

Used drive  : HL-DT-STDVDRAM GH22NS40   Adapter: 1  ID: 0

Read mode               : Secure
Utilize accurate stream : Yes
Defeat audio cache      : Yes
Make use of C2 pointers : No

Read offset correction                      : 667
Overread into Lead-In and Lead-Out          : No
Fill up missing offset samples with silence : Yes
Delete leading and trailing silent blocks   : No
Null samples used in CRC calculations       : Yes
Used interface                              : Native Win32 interface for Win NT & 2000

Used output format              : User Defined Encoder
Selected bitrate                : 1024 kBit/s
Quality                         : High
Add ID3 tag                     : No
Command line compressor         : C:\Program Files (x86)\Exact Audio Copy\Flac\flac.exe
Additional command line options : -6 -V %source%

TOC of the extracted CD

     Track |   Start  |  Length  | Start sector | End sector
    ---------------------------------------------------------
        1  |  0:00.00 |  5:49.19 |         0    |    26193
        2  |  5:49.19 |  5:14.56 |     26194    |    49799
        3  | 11:04.00 |  4:48.09 |     49800    |    71408
        4  | 15:52.09 |  5:24.55 |     71409    |    95763
        5  | 21:16.64 |  5:17.43 |     95764    |   119581
        6  | 26:34.32 |  5:30.23 |    119582    |   144354
        7  | 32:04.55 |  3:34.26 |    144355    |   160430
        8  | 35:39.06 |  6:38.36 |    160431    |   190316
        9  | 42:17.42 |  4:56.17 |    190317    |   212533
       10  | 47:13.59 |  2:30.50 |    212534    |   223833
       11  | 49:44.34 |  4:04.33 |    223834    |   242166
       12  | 53:48.67 |  3:56.54 |    242167    |   259920
       13  | 57:45.46 |  5:46.14 |    259921    |   285884
       14  | 63:31.60 |  3:40.23 |    285885    |   302407

Range status and errors

Selected range

     Filename Z:\home\cdmeloman\LICENSE CD\DEMONS & WIZARDS [2005] [CD] Touched By The Crimson King [EAC-FLAC]\Demons & Wizards - Touched by the Crimson King.wav

     Peak level 99.9 %
     Extraction speed 2.1 X
     Range quality 100.0 %
     Test CRC 829EE93D
     Copy CRC 829EE93D
     Copy OK

No errors occurred

AccurateRip summary

Track  1  accurately ripped (confidence 4)  [EA202817]  (AR v2)
Track  2  accurately ripped (confidence 4)  [F30D6508]  (AR v2)
Track  3  accurately ripped (confidence 4)  [C7060BC7]  (AR v2)
Track  4  accurately ripped (confidence 4)  [F94843CF]  (AR v2)
Track  5  accurately ripped (confidence 4)  [11606185]  (AR v2)
Track  6  accurately ripped (confidence 4)  [C34F3EBF]  (AR v2)
Track  7  accurately ripped (confidence 4)  [70F5DFCD]  (AR v2)
Track  8  accurately ripped (confidence 4)  [3131849C]  (AR v2)
Track  9  accurately ripped (confidence 4)  [68522A64]  (AR v2)
Track 10  accurately ripped (confidence 4)  [1DA729BC]  (AR v2)
Track 11  accurately ripped (confidence 4)  [669675F9]  (AR v2)
Track 12  accurately ripped (confidence 4)  [7794182E]  (AR v2)
Track 13  accurately ripped (confidence 4)  [076DF883]  (AR v2)
Track 14  accurately ripped (confidence 4)  [6BFCE886]  (AR v2)

All tracks accurately ripped

End of status report

==== Log checksum E2D03702FBA63D447122136F4502D15D1843FBEB4E6A69405E79B92EFE3701F0 ====
Время раздачи: 19.00-23.00


Поглощение/вытеснение
Только с согласия релизера

Bigbeer
[NNMClub.to]_DEMONS & WIZARDS [2005] [CD] Touched By The Crimson King [EAC-FLAC].torrent
 Торрент: Платиновая раздача  Зарегистрирован
 
Скачать


Примагнититься
 Зарегистрирован:   09 Май 2020 09:12:17
 Размер:   542 MB  (
 Рейтинг:    (Голосов: 8)
 Поблагодарили:   57
 Проверка:   Оформление проверено модератором 09 Май 2020 09:16:32
Как cкачать  ·  Как раздать  ·  Правильно оформить  ·  Поднять ратио!  
Colobock
 
Стаж: 14 лет 3 мес.
Сообщений: 463
Ratio: 5.544
Поблагодарили: 191
100%
Откуда: Альфа Центавра знаешь? Тамошние мы...
russia.gif
У вас в раздаче "Special Edition" у него обложка другая.
Просмотр доступен только для зарегистрированных пользователей
gatherone ®
RG Music
Стаж: 9 лет 4 мес.
Сообщений: 2715
Ratio: 174.612
Поблагодарили: 73728
8.77%
Colobock писал(а): Перейти к сообщению
У вас в раздаче "Special Edition" у него обложка другая.
Просмотр доступен только для зарегистрированных пользователей

У меня такая, какую я выложил. Про спец. издание я на диске ничего не нашёл.
Показать сообщения:   
Начать новую тему   Ответить на тему    Торрент-трекер NNM-Club -> Rock, Alternative, Punk, Metal -> Metal (Lossless) Часовой пояс: GMT + 3
Страница 1 из 1