Классический форум-трекер
canvas not supported
Нас вместе: 4 233 354

Первый дома (2007) SATRip


 
 
RSS
Начать новую тему   Ответить на тему    Торрент-трекер NNM-Club -> Документалистика и Телепередачи -> Музыкальные шоу
Автор Сообщение
smpeal ®
Стаж: 11 лет 9 мес.
Сообщений: 62
Ratio: 99.87
Поблагодарили: 7340
100%
ussr.gif
Первый дома (2007) SATRip
Название: Первый дома

Режиссер / Телекомпания: Олег Гусев / Первый канал
Год выпуска: 2007
Жанр: Музыкальное шоу, комедия

Описание:
Первый дома — новогодний музыкальный фильм, вышедший в эфир на Первом канале в ночь на 1 января 2007 года. Главной темой фильма является празднование Нового года, наступающего года свиньи. Ранее в ночь на 1 января 2006 год Первый канал также показал стране мюзикл Первый скорый.

Главные герои новогоднего действа – известные актёры и телеведущие Николай Фоменко и Иван Ургант. Эти двое совершенно не верят в Новый год и хотят встретить праздник тихо, спокойно, в домашних тапочках. В результате, заблудившись, Фоменко и Ургант попадают в некий заколдованный дом, который не выпускает их до тех пор, пока герои не поверят в Новый год, настоящую сказку и чудо.

Атмосферу Нового Года создает целое созвездие популярнейших российских артистов. Именно в их исполнении любимые песни обрели новое дыхание. Наряду с популярными звездами эстрады, зрителей ждет встреча с артистами кино, завоевавшими всенародную любовь…

Участники: Иван Ургант, Николай Фоменко, Егор Дружинин, Дмитрий Нагиев, Юрий Гальцев, Елена Воробей, София Ротару, Родион Нахапетов, Борис Смолкин, Ян Цапник, Виктор Бычков, Жанна Фриске, Людмила Иванова, Александр Михайлов, Вячеслав Разбегаев, Кристина Орбакайте, Максим Галкин, Лариса Долина, Дима Билан, Михаил Светин, Эммануил Виторган, Вера Алентова, Владимир Меньшов, Юлия Меньшова, Валерия, Светлана Немоляева, Нина Гребешкова, Анжелика (Мария) Варум, Марат Башаров, Виктория Дайнеко, Михаил Ефремов, Филипп Киркоров, Гоша Куценко, Игорь Лифанов, Карина Разумовская, Екатерина Стриженова, Игорь (Гарик) Сукачев

Продолжительность: 01:27:56

Видеокодек: Xvid
Битрейт видео: ~1787 Kbps
Размер кадра: 704x512
Качество видео: SATRip
Аудиокодек: AC3
Битрейт аудио: 192 Kbps, 2 канала
Общее
Полное имя : Z:\ТВ фильмы и спектакли\Первый дома (2007) nnm-club.avi
Формат : AVI
Формат/Информация : Audio Video Interleave
Размер файла : 1,22 Гбайт
Продолжительность : 1 ч. 27 м.
Общий поток : 1989 Кбит/сек
Программа кодирования : VirtualDubMod 1.5.10.2 (build 2542/release)
Библиотека кодирования : VirtualDubMod build 2542/release

Видео
Идентификатор : 0
Формат : MPEG-4 Visual
Профиль формата : Advanced Simple@L5
Параметр BVOP формата : 2
Параметр QPel формата : Нет
Параметр GMC формата : Без точки перехода
Параметр матрицы формата : Default (H.263)
Режим смешивания : Сжатый битовый поток
Идентификатор кодека : XVID
Идентификатор кодека/Подсказка : XviD
Продолжительность : 1 ч. 27 м.
Битрейт : 1787 Кбит/сек
Ширина : 704 пикселя
Высота : 512 пикселей
Соотношение сторон : 1,375
Частота кадров : 25,000 кадров/сек
Цветовое пространство : YUV
Субдискретизация насыщенности : 4:2:0
Битовая глубина : 8 бит
Тип развёртки : Прогрессивная
Метод сжатия : С потерями
Бит/(Пиксели*Кадры) : 0.198
Размер потока : 1,10 Гбайт (90%)
Библиотека кодирования : XviD 64

Аудио
Идентификатор : 1
Формат : AC-3
Формат/Информация : Audio Coding 3
Расширение режима : CM (complete main)
Параметр Endianness формата : Big
Идентификатор кодека : 2000
Продолжительность : 1 ч. 27 м.
Вид битрейта : Постоянный
Битрейт : 192 Кбит/сек
Каналы : 2 канала
Расположение каналов : Front: L R
Частота : 48,0 КГц
Битовая глубина : 16 бит
Метод сжатия : С потерями
Размер потока : 121 Мбайт (10%)
Выравнивание : Разделение по промежуткам
Продолжительность промежутка : 40 мс. (1,00 видеокадр)
Время предзагрузки промежутка : 500 мс.
Скриншоты:



Время раздачи: По выходным с 12 до 24, иногда в будни вечером
[NNM-Club.ru]_Perviy.doma.2007.SATrip.avi.torrent
 Торрент: Платиновая раздача  Зарегистрирован
 
Скачать


Примагнититься
 Зарегистрирован:   05 Янв 2013 23:36:16
 Размер:   1.22 GB  (
 Рейтинг:   3.7 (Голосов: 23)
 Поблагодарили:   74
 Проверка:   Оформление проверено модератором 08 Янв 2013 15:33:34
Как cкачать  ·  Как раздать  ·  Правильно оформить  ·  Поднять ратио!  
vitas58
Стаж: 13 лет 8 мес.
Сообщений: 31
Ratio: 1.982
100%
russia.gif
большое спасибо!! :супер!:
посмотрел с удовольствием. а вторая часть будет?
BatisWest
Стаж: 16 лет
Сообщений: 73
Ratio: 36.474
Поблагодарили: 331
100%
ussr.gif
спасибо за раздачу! :да:

vitas58 писал(а): Перейти к сообщению
большое спасибо!! :супер!:
посмотрел с удовольствием. а вторая часть будет?


вот в вики можно узнать
http://ru.wikipedia.org/wiki/Новогодняя_ночь_на_Первом_канале
Показать сообщения:   
Начать новую тему   Ответить на тему    Торрент-трекер NNM-Club -> Документалистика и Телепередачи -> Музыкальные шоу Часовой пояс: GMT + 3
Страница 1 из 1