Классический форум-трекер
canvas not supported
Нас вместе: 4 211 000

Менталист / The Mentalist (2011-2012) WEB-DLRip (4-й сезон, серии 1-24 (24)) (ТВ-3)


 
 
RSS
Начать новую тему   Ответить на тему    Торрент-трекер NNM-Club -> Зарубежные сериалы -> Менталист / The Mentalist ; Теория Лжи / Lie To Me
Автор Сообщение
WOLF 80 ®
Uploader 100+
Стаж: 13 лет 3 мес.
Сообщений: 480
Ratio: 3613.935
Раздал: 157 TB
Поблагодарили: 31808
100%
Откуда: Санкт-Петербург
russia.gif
Менталист / The Mentalist (2011-2012) WEB-DLRip (4-й сезон, серии 1-24 (24)) (ТВ-3)
Русское название: Менталист
Оригинальное название: The Mentalist
Год выпуска: 2011-2012
Жанр: Детектив

Перевод: Профессиональный (полное дублирование) - канал ТВ3



Режиссер: Крис Лонг, Роксанн Даусон, Том Верика
Актеры: Саймон Бейкер, Робин Танни, Тим Кенг, Овайн Йомэн, Аманда Риджетти, Онжаню Эллис, Грегори Итцин, Прюитт Тэйлор Винс, Майкл Гэстон, Эрик Винтер
Роли дублировали: Сергей Набиев, Вероника Саркисова, Евгений Вальц, Никита Прозоровский, Ольга Зверева

Описание фильма: Патрик Джейн — детектив и независимый консультант из Калифорнийского Бюро Расследований (КБР), он использует свои отточенные, как лезвие, навыки наблюдения для раскрытия тяжких преступлений. В самом Бюро Джейн известен за частые нарушения протокола, а также за его звездное прошлое: он работал медиумом, однако теперь сам признает, что симулировал паранормальные способности. Роль Джейна в раскрытии целой серии загадочных преступлений высоко ценится коллегами. Но суровый старший агент Тереза Лисбон против того, чтоб Джейн работал с ее отрядом, и то вынужденно признает его успехи, то критикует его за театральность, нарциссизм и отсутствие границ.
Общее
Полное имя : E:\UPLOADED\СЕРИАЛЫ\MENTALIST\Менталист Rip\Rip Менталист 4 сезон\01. Алые ленты (Scarlet Ribbons).avi
Формат : AVI
Формат/Информация : Audio Video Interleave
Размер файла : 480 Мбайт
Продолжительность : 42 м.
Общий поток : 1576 Кбит/сек
Библиотека кодирования : MPlayer

Видео
Идентификатор : 0
Формат : MPEG-4 Visual
Профиль формата : Simple@L1
Параметр BVOP формата : Нет
Параметр QPel формата : Нет
Параметр GMC формата : Без точки перехода
Параметр матрицы формата : Default (H.263)
Идентификатор кодека : DX50
Идентификатор кодека/Подсказка : DivX 5
Продолжительность : 42 м.
Битрейт : 1372 Кбит/сек
Ширина : 720 пикселей
Высота : 400 пикселей
Соотношение сторон : 16:9
Частота кадров : 23,976 кадра/сек
Цветовое пространство : YUV
Субдискретизация насыщенности : 4:2:0
Битовая глубина : 8 бит
Тип развёртки : Чересстрочная
Порядок развёртки : Верхнее поле первое
Метод сжатия : С потерями
Бит/(Пиксели*Кадры) : 0.199
Размер потока : 418 Мбайт (87%)
Библиотека кодирования : Lavc51.44.0

Аудио
Идентификатор : 1
Формат : MPEG Audio
Версия формата : Version 1
Профиль формата : Layer 3
Режим : Joint stereo
Расширение режима : MS Stereo
Идентификатор кодека : 55
Идентификатор кодека/Подсказка : MP3
Продолжительность : 42 м.
Вид битрейта : Постоянный
Битрейт : 192 Кбит/сек
Каналы : 2 канала
Частота : 48,0 КГц
Метод сжатия : С потерями
Размер потока : 58,5 Мбайт (12%)
Выравнивание : Соединение по промежуткам
Продолжительность промежутка : 24 мс. (0,58 видеокадр)
Время предзагрузки промежутка : 816 мс.
Общее
Полное имя : E:\UPLOADED\СЕРИАЛЫ\MENTALIST\Менталист Rip\Rip Менталист 4 сезон\02. Маленькая красная книжка (Little Red Book).avi
Формат : AVI
Формат/Информация : Audio Video Interleave
Размер файла : 481 Мбайт
Продолжительность : 42 м.
Общий поток : 1570 Кбит/сек
Библиотека кодирования : MPlayer

Видео
Идентификатор : 0
Формат : MPEG-4 Visual
Профиль формата : Simple@L1
Параметр BVOP формата : Нет
Параметр QPel формата : Нет
Параметр GMC формата : Без точки перехода
Параметр матрицы формата : Default (H.263)
Идентификатор кодека : DX50
Идентификатор кодека/Подсказка : DivX 5
Продолжительность : 42 м.
Битрейт : 1365 Кбит/сек
Ширина : 720 пикселей
Высота : 400 пикселей
Соотношение сторон : 16:9
Частота кадров : 23,976 кадра/сек
Цветовое пространство : YUV
Субдискретизация насыщенности : 4:2:0
Битовая глубина : 8 бит
Тип развёртки : Чересстрочная
Порядок развёртки : Верхнее поле первое
Метод сжатия : С потерями
Бит/(Пиксели*Кадры) : 0.198
Размер потока : 418 Мбайт (87%)
Библиотека кодирования : Lavc51.44.0

Аудио
Идентификатор : 1
Формат : MPEG Audio
Версия формата : Version 1
Профиль формата : Layer 3
Режим : Joint stereo
Расширение режима : MS Stereo
Идентификатор кодека : 55
Идентификатор кодека/Подсказка : MP3
Продолжительность : 42 м.
Вид битрейта : Постоянный
Битрейт : 192 Кбит/сек
Каналы : 2 канала
Частота : 48,0 КГц
Метод сжатия : С потерями
Размер потока : 58,8 Мбайт (12%)
Выравнивание : Соединение по промежуткам
Продолжительность промежутка : 24 мс. (0,58 видеокадр)
Время предзагрузки промежутка : 816 мс.
Библиотека кодирования : LAME3.97
Общее
Полное имя : E:\UPLOADED\СЕРИАЛЫ\MENTALIST\Менталист Rip\Rip Менталист 4 сезон\03. Красивый красный шар (Pretty Red Balloon).avi
Формат : AVI
Формат/Информация : Audio Video Interleave
Размер файла : 482 Мбайт
Продолжительность : 41 м.
Общий поток : 1620 Кбит/сек
Библиотека кодирования : MPlayer

Видео
Идентификатор : 0
Формат : MPEG-4 Visual
Профиль формата : Simple@L1
Параметр BVOP формата : Нет
Параметр QPel формата : Нет
Параметр GMC формата : Без точки перехода
Параметр матрицы формата : Default (H.263)
Идентификатор кодека : DX50
Идентификатор кодека/Подсказка : DivX 5
Продолжительность : 41 м.
Битрейт : 1415 Кбит/сек
Ширина : 720 пикселей
Высота : 400 пикселей
Соотношение сторон : 16:9
Частота кадров : 23,976 кадра/сек
Цветовое пространство : YUV
Субдискретизация насыщенности : 4:2:0
Битовая глубина : 8 бит
Тип развёртки : Чересстрочная
Порядок развёртки : Верхнее поле первое
Метод сжатия : С потерями
Бит/(Пиксели*Кадры) : 0.205
Размер потока : 421 Мбайт (87%)
Библиотека кодирования : Lavc51.44.0

Аудио
Идентификатор : 1
Формат : MPEG Audio
Версия формата : Version 1
Профиль формата : Layer 3
Режим : Joint stereo
Расширение режима : MS Stereo
Идентификатор кодека : 55
Идентификатор кодека/Подсказка : MP3
Продолжительность : 41 м.
Вид битрейта : Постоянный
Битрейт : 192 Кбит/сек
Каналы : 2 канала
Частота : 48,0 КГц
Метод сжатия : С потерями
Размер потока : 57,1 Мбайт (12%)
Выравнивание : Соединение по промежуткам
Продолжительность промежутка : 24 мс. (0,58 видеокадр)
Время предзагрузки промежутка : 816 мс.
Библиотека кодирования : LAME3.97
Общее
Полное имя : E:\UPLOADED\СЕРИАЛЫ\MENTALIST\Менталист Rip\Rip Менталист 4 сезон\04. Кольцо вокруг Рози (Ring Around the Rosie).avi
Формат : AVI
Формат/Информация : Audio Video Interleave
Размер файла : 556 Мбайт
Продолжительность : 42 м.
Общий поток : 1807 Кбит/сек
Библиотека кодирования : MPlayer

Видео
Идентификатор : 0
Формат : MPEG-4 Visual
Профиль формата : Simple@L1
Параметр BVOP формата : Нет
Параметр QPel формата : Нет
Параметр GMC формата : Без точки перехода
Параметр матрицы формата : Default (H.263)
Идентификатор кодека : DX50
Идентификатор кодека/Подсказка : DivX 5
Продолжительность : 42 м.
Битрейт : 1603 Кбит/сек
Ширина : 720 пикселей
Высота : 400 пикселей
Соотношение сторон : 16:9
Частота кадров : 23,976 кадра/сек
Цветовое пространство : YUV
Субдискретизация насыщенности : 4:2:0
Битовая глубина : 8 бит
Тип развёртки : Чересстрочная
Порядок развёртки : Верхнее поле первое
Метод сжатия : С потерями
Бит/(Пиксели*Кадры) : 0.232
Размер потока : 493 Мбайт (89%)
Библиотека кодирования : Lavc51.44.0

Аудио
Идентификатор : 1
Формат : MPEG Audio
Версия формата : Version 1
Профиль формата : Layer 3
Режим : Joint stereo
Расширение режима : MS Stereo
Идентификатор кодека : 55
Идентификатор кодека/Подсказка : MP3
Продолжительность : 42 м.
Вид битрейта : Постоянный
Битрейт : 192 Кбит/сек
Каналы : 2 канала
Частота : 48,0 КГц
Метод сжатия : С потерями
Размер потока : 59,0 Мбайт (11%)
Выравнивание : Соединение по промежуткам
Продолжительность промежутка : 24 мс. (0,58 видеокадр)
Время предзагрузки промежутка : 816 мс.
Библиотека кодирования : LAME3.97
Общее
Полное имя : E:\UPLOADED\СЕРИАЛЫ\MENTALIST\Менталист Rip\Rip Менталист 4 сезон\05. Кровь и песок (Blood and Sand).avi
Формат : AVI
Формат/Информация : Audio Video Interleave
Размер файла : 645 Мбайт
Продолжительность : 41 м.
Общий поток : 2185 Кбит/сек
Библиотека кодирования : MPlayer

Видео
Идентификатор : 0
Формат : MPEG-4 Visual
Профиль формата : Simple@L1
Параметр BVOP формата : Нет
Параметр QPel формата : Нет
Параметр GMC формата : Без точки перехода
Параметр матрицы формата : Default (H.263)
Идентификатор кодека : DX50
Идентификатор кодека/Подсказка : DivX 5
Продолжительность : 41 м.
Битрейт : 1981 Кбит/сек
Ширина : 720 пикселей
Высота : 400 пикселей
Соотношение сторон : 16:9
Частота кадров : 23,976 кадра/сек
Цветовое пространство : YUV
Субдискретизация насыщенности : 4:2:0
Битовая глубина : 8 бит
Тип развёртки : Чересстрочная
Порядок развёртки : Верхнее поле первое
Метод сжатия : С потерями
Бит/(Пиксели*Кадры) : 0.287
Размер потока : 584 Мбайт (91%)
Библиотека кодирования : Lavc51.44.0

Аудио
Идентификатор : 1
Формат : MPEG Audio
Версия формата : Version 1
Профиль формата : Layer 3
Режим : Joint stereo
Расширение режима : MS Stereo
Идентификатор кодека : 55
Идентификатор кодека/Подсказка : MP3
Продолжительность : 41 м.
Вид битрейта : Постоянный
Битрейт : 192 Кбит/сек
Каналы : 2 канала
Частота : 48,0 КГц
Метод сжатия : С потерями
Размер потока : 56,6 Мбайт (9%)
Выравнивание : Соединение по промежуткам
Продолжительность промежутка : 24 мс. (0,58 видеокадр)
Время предзагрузки промежутка : 816 мс.
Библиотека кодирования : LAME3.97
Общее
Полное имя : E:\UPLOADED\СЕРИАЛЫ\MENTALIST\Менталист Rip\Rip Менталист 4 сезон\06. Куда подевался Кармин О’Брайан ( Where in the World is Carmine O'Brien).avi
Формат : AVI
Формат/Информация : Audio Video Interleave
Размер файла : 575 Мбайт
Продолжительность : 41 м.
Общий поток : 1946 Кбит/сек
Библиотека кодирования : MPlayer

Видео
Идентификатор : 0
Формат : MPEG-4 Visual
Профиль формата : Simple@L1
Параметр BVOP формата : Нет
Параметр QPel формата : Нет
Параметр GMC формата : Без точки перехода
Параметр матрицы формата : Default (H.263)
Идентификатор кодека : DX50
Идентификатор кодека/Подсказка : DivX 5
Продолжительность : 41 м.
Битрейт : 1741 Кбит/сек
Ширина : 720 пикселей
Высота : 400 пикселей
Соотношение сторон : 16:9
Частота кадров : 23,976 кадра/сек
Цветовое пространство : YUV
Субдискретизация насыщенности : 4:2:0
Битовая глубина : 8 бит
Тип развёртки : Чересстрочная
Порядок развёртки : Верхнее поле первое
Метод сжатия : С потерями
Бит/(Пиксели*Кадры) : 0.252
Размер потока : 515 Мбайт (89%)
Библиотека кодирования : Lavc51.44.0

Аудио
Идентификатор : 1
Формат : MPEG Audio
Версия формата : Version 1
Профиль формата : Layer 3
Режим : Joint stereo
Расширение режима : MS Stereo
Идентификатор кодека : 55
Идентификатор кодека/Подсказка : MP3
Продолжительность : 41 м.
Вид битрейта : Постоянный
Битрейт : 192 Кбит/сек
Каналы : 2 канала
Частота : 48,0 КГц
Метод сжатия : С потерями
Размер потока : 56,7 Мбайт (10%)
Выравнивание : Соединение по промежуткам
Продолжительность промежутка : 24 мс. (0,58 видеокадр)
Время предзагрузки промежутка : 816 мс.
Библиотека кодирования : LAME3.97ЄЄЄЄЄЄЄЄЄЄЄЄ
Общее
Полное имя : E:\UPLOADED\СЕРИАЛЫ\MENTALIST\Менталист Rip\Rip Менталист 4 сезон\07. Мигающий красный свет (Blinking Red Light).avi
Формат : AVI
Формат/Информация : Audio Video Interleave
Размер файла : 443 Мбайт
Продолжительность : 42 м.
Общий поток : 1448 Кбит/сек
Библиотека кодирования : MPlayer

Видео
Идентификатор : 0
Формат : MPEG-4 Visual
Профиль формата : Simple@L1
Параметр BVOP формата : Нет
Параметр QPel формата : Нет
Параметр GMC формата : Без точки перехода
Параметр матрицы формата : Default (H.263)
Идентификатор кодека : DX50
Идентификатор кодека/Подсказка : DivX 5
Продолжительность : 42 м.
Битрейт : 1244 Кбит/сек
Ширина : 720 пикселей
Высота : 400 пикселей
Соотношение сторон : 16:9
Частота кадров : 23,976 кадра/сек
Цветовое пространство : YUV
Субдискретизация насыщенности : 4:2:0
Битовая глубина : 8 бит
Тип развёртки : Чересстрочная
Порядок развёртки : Верхнее поле первое
Метод сжатия : С потерями
Бит/(Пиксели*Кадры) : 0.180
Размер потока : 381 Мбайт (86%)
Библиотека кодирования : Lavc51.44.0

Аудио
Идентификатор : 1
Формат : MPEG Audio
Версия формата : Version 1
Профиль формата : Layer 3
Режим : Joint stereo
Расширение режима : MS Stereo
Идентификатор кодека : 55
Идентификатор кодека/Подсказка : MP3
Продолжительность : 42 м.
Вид битрейта : Постоянный
Битрейт : 192 Кбит/сек
Каналы : 2 канала
Частота : 48,0 КГц
Метод сжатия : С потерями
Размер потока : 58,8 Мбайт (13%)
Выравнивание : Соединение по промежуткам
Продолжительность промежутка : 24 мс. (0,58 видеокадр)
Время предзагрузки промежутка : 816 мс.
Общее
Полное имя : E:\UPLOADED\СЕРИАЛЫ\MENTALIST\Менталист Rip\Rip Менталист 4 сезон\08. Розовые платья (Pink Tops).avi
Формат : AVI
Формат/Информация : Audio Video Interleave
Размер файла : 478 Мбайт
Продолжительность : 42 м.
Общий поток : 1571 Кбит/сек
Библиотека кодирования : MPlayer

Видео
Идентификатор : 0
Формат : MPEG-4 Visual
Профиль формата : Simple@L1
Параметр BVOP формата : Нет
Параметр QPel формата : Нет
Параметр GMC формата : Без точки перехода
Параметр матрицы формата : Default (H.263)
Идентификатор кодека : DX50
Идентификатор кодека/Подсказка : DivX 5
Продолжительность : 42 м.
Битрейт : 1367 Кбит/сек
Ширина : 720 пикселей
Высота : 400 пикселей
Соотношение сторон : 16:9
Частота кадров : 23,976 кадра/сек
Цветовое пространство : YUV
Субдискретизация насыщенности : 4:2:0
Битовая глубина : 8 бит
Тип развёртки : Чересстрочная
Порядок развёртки : Верхнее поле первое
Метод сжатия : С потерями
Бит/(Пиксели*Кадры) : 0.198
Размер потока : 416 Мбайт (87%)
Библиотека кодирования : Lavc51.44.0

Аудио
Идентификатор : 1
Формат : MPEG Audio
Версия формата : Version 1
Профиль формата : Layer 3
Режим : Joint stereo
Расширение режима : MS Stereo
Идентификатор кодека : 55
Идентификатор кодека/Подсказка : MP3
Продолжительность : 42 м.
Вид битрейта : Постоянный
Битрейт : 192 Кбит/сек
Каналы : 2 канала
Частота : 48,0 КГц
Метод сжатия : С потерями
Размер потока : 58,4 Мбайт (12%)
Выравнивание : Соединение по промежуткам
Продолжительность промежутка : 24 мс. (0,58 видеокадр)
Время предзагрузки промежутка : 816 мс.
Библиотека кодирования : LAME3.97
Общее
Полное имя : E:\UPLOADED\СЕРИАЛЫ\MENTALIST\Менталист Rip\Rip Менталист 4 сезон\09. Красная майка (The Redshirt).avi
Формат : AVI
Формат/Информация : Audio Video Interleave
Размер файла : 466 Мбайт
Продолжительность : 42 м.
Общий поток : 1534 Кбит/сек
Библиотека кодирования : MPlayer

Видео
Идентификатор : 0
Формат : MPEG-4 Visual
Профиль формата : Simple@L1
Параметр BVOP формата : Нет
Параметр QPel формата : Нет
Параметр GMC формата : Без точки перехода
Параметр матрицы формата : Default (H.263)
Идентификатор кодека : DX50
Идентификатор кодека/Подсказка : DivX 5
Продолжительность : 42 м.
Битрейт : 1330 Кбит/сек
Ширина : 720 пикселей
Высота : 400 пикселей
Соотношение сторон : 16:9
Частота кадров : 23,976 кадра/сек
Цветовое пространство : YUV
Субдискретизация насыщенности : 4:2:0
Битовая глубина : 8 бит
Тип развёртки : Чересстрочная
Порядок развёртки : Верхнее поле первое
Метод сжатия : С потерями
Бит/(Пиксели*Кадры) : 0.193
Размер потока : 404 Мбайт (87%)
Библиотека кодирования : Lavc51.44.0

Аудио
Идентификатор : 1
Формат : MPEG Audio
Версия формата : Version 1
Профиль формата : Layer 3
Режим : Joint stereo
Расширение режима : MS Stereo
Идентификатор кодека : 55
Идентификатор кодека/Подсказка : MP3
Продолжительность : 42 м.
Вид битрейта : Постоянный
Битрейт : 192 Кбит/сек
Каналы : 2 канала
Частота : 48,0 КГц
Метод сжатия : С потерями
Размер потока : 58,3 Мбайт (13%)
Выравнивание : Соединение по промежуткам
Продолжительность промежутка : 24 мс. (0,58 видеокадр)
Время предзагрузки промежутка : 816 мс.
Библиотека кодирования : LAME3.97
Общее
Полное имя : E:\UPLOADED\СЕРИАЛЫ\MENTALIST\Менталист Rip\Rip Менталист 4 сезон\10. Фуга в красном ( Fugue in Red).avi
Формат : AVI
Формат/Информация : Audio Video Interleave
Размер файла : 472 Мбайт
Продолжительность : 42 м.
Общий поток : 1543 Кбит/сек
Библиотека кодирования : MPlayer

Видео
Идентификатор : 0
Формат : MPEG-4 Visual
Профиль формата : Simple@L1
Параметр BVOP формата : Нет
Параметр QPel формата : Нет
Параметр GMC формата : Без точки перехода
Параметр матрицы формата : Default (H.263)
Идентификатор кодека : DX50
Идентификатор кодека/Подсказка : DivX 5
Продолжительность : 42 м.
Битрейт : 1338 Кбит/сек
Ширина : 720 пикселей
Высота : 400 пикселей
Соотношение сторон : 16:9
Частота кадров : 23,976 кадра/сек
Цветовое пространство : YUV
Субдискретизация насыщенности : 4:2:0
Битовая глубина : 8 бит
Тип развёртки : Чересстрочная
Порядок развёртки : Верхнее поле первое
Метод сжатия : С потерями
Бит/(Пиксели*Кадры) : 0.194
Размер потока : 410 Мбайт (87%)
Библиотека кодирования : Lavc51.44.0

Аудио
Идентификатор : 1
Формат : MPEG Audio
Версия формата : Version 1
Профиль формата : Layer 3
Режим : Joint stereo
Расширение режима : MS Stereo
Идентификатор кодека : 55
Идентификатор кодека/Подсказка : MP3
Продолжительность : 42 м.
Вид битрейта : Постоянный
Битрейт : 192 Кбит/сек
Каналы : 2 канала
Частота : 48,0 КГц
Метод сжатия : С потерями
Размер потока : 58,7 Мбайт (12%)
Выравнивание : Соединение по промежуткам
Продолжительность промежутка : 24 мс. (0,58 видеокадр)
Время предзагрузки промежутка : 816 мс.
Библиотека кодирования : LAME3.97
Общее
Полное имя : E:\UPLOADED\СЕРИАЛЫ\MENTALIST\Менталист Rip\Rip Менталист 4 сезон\11. Всегда ставь на красное (Always Bet on Red).avi
Формат : AVI
Формат/Информация : Audio Video Interleave
Размер файла : 505 Мбайт
Продолжительность : 41 м.
Общий поток : 1708 Кбит/сек
Библиотека кодирования : MPlayer

Видео
Идентификатор : 0
Формат : MPEG-4 Visual
Профиль формата : Simple@L1
Параметр BVOP формата : Нет
Параметр QPel формата : Нет
Параметр GMC формата : Без точки перехода
Параметр матрицы формата : Default (H.263)
Идентификатор кодека : DX50
Идентификатор кодека/Подсказка : DivX 5
Продолжительность : 41 м.
Битрейт : 1503 Кбит/сек
Ширина : 720 пикселей
Высота : 400 пикселей
Соотношение сторон : 16:9
Частота кадров : 23,976 кадра/сек
Цветовое пространство : YUV
Субдискретизация насыщенности : 4:2:0
Битовая глубина : 8 бит
Тип развёртки : Чересстрочная
Порядок развёртки : Верхнее поле первое
Метод сжатия : С потерями
Бит/(Пиксели*Кадры) : 0.218
Размер потока : 445 Мбайт (88%)
Библиотека кодирования : Lavc51.44.0

Аудио
Идентификатор : 1
Формат : MPEG Audio
Версия формата : Version 1
Профиль формата : Layer 3
Режим : Joint stereo
Расширение режима : MS Stereo
Идентификатор кодека : 55
Идентификатор кодека/Подсказка : MP3
Продолжительность : 41 м.
Вид битрейта : Постоянный
Битрейт : 192 Кбит/сек
Каналы : 2 канала
Частота : 48,0 КГц
Метод сжатия : С потерями
Размер потока : 56,8 Мбайт (11%)
Выравнивание : Соединение по промежуткам
Продолжительность промежутка : 24 мс. (0,58 видеокадр)
Время предзагрузки промежутка : 816 мс.
Библиотека кодирования : LAME3.97
Общее
Полное имя : E:\UPLOADED\СЕРИАЛЫ\MENTALIST\Менталист Rip\Rip Менталист 4 сезон\12. Мой кровавый Валентин (My Bloody Valentine).avi
Формат : AVI
Формат/Информация : Audio Video Interleave
Размер файла : 569 Мбайт
Продолжительность : 42 м.
Общий поток : 1853 Кбит/сек
Библиотека кодирования : MPlayer

Видео
Идентификатор : 0
Формат : MPEG-4 Visual
Профиль формата : Simple@L1
Параметр BVOP формата : Нет
Параметр QPel формата : Нет
Параметр GMC формата : Без точки перехода
Параметр матрицы формата : Default (H.263)
Идентификатор кодека : DX50
Идентификатор кодека/Подсказка : DivX 5
Продолжительность : 42 м.
Битрейт : 1648 Кбит/сек
Ширина : 720 пикселей
Высота : 400 пикселей
Соотношение сторон : 16:9
Частота кадров : 23,976 кадра/сек
Цветовое пространство : YUV
Субдискретизация насыщенности : 4:2:0
Битовая глубина : 8 бит
Тип развёртки : Чересстрочная
Порядок развёртки : Верхнее поле первое
Метод сжатия : С потерями
Бит/(Пиксели*Кадры) : 0.239
Размер потока : 506 Мбайт (89%)
Библиотека кодирования : Lavc51.44.0

Аудио
Идентификатор : 1
Формат : MPEG Audio
Версия формата : Version 1
Профиль формата : Layer 3
Режим : Joint stereo
Расширение режима : MS Stereo
Идентификатор кодека : 55
Идентификатор кодека/Подсказка : MP3
Продолжительность : 42 м.
Вид битрейта : Постоянный
Битрейт : 192 Кбит/сек
Каналы : 2 канала
Частота : 48,0 КГц
Метод сжатия : С потерями
Размер потока : 58,9 Мбайт (10%)
Выравнивание : Соединение по промежуткам
Продолжительность промежутка : 24 мс. (0,58 видеокадр)
Время предзагрузки промежутка : 816 мс.
Библиотека кодирования : LAME3.97
Общее
Полное имя : E:\UPLOADED\СЕРИАЛЫ\MENTALIST\Менталист Rip\Rip Менталист 4 сезон\13. Красный - это новый черный (Red is the New Black).avi
Формат : AVI
Формат/Информация : Audio Video Interleave
Размер файла : 443 Мбайт
Продолжительность : 41 м.
Общий поток : 1507 Кбит/сек
Библиотека кодирования : MPlayer

Видео
Идентификатор : 0
Формат : MPEG-4 Visual
Профиль формата : Simple@L1
Параметр BVOP формата : Нет
Параметр QPel формата : Нет
Параметр GMC формата : Без точки перехода
Параметр матрицы формата : Default (H.263)
Идентификатор кодека : DX50
Идентификатор кодека/Подсказка : DivX 5
Продолжительность : 41 м.
Битрейт : 1302 Кбит/сек
Ширина : 720 пикселей
Высота : 400 пикселей
Соотношение сторон : 16:9
Частота кадров : 23,976 кадра/сек
Цветовое пространство : YUV
Субдискретизация насыщенности : 4:2:0
Битовая глубина : 8 бит
Тип развёртки : Чересстрочная
Порядок развёртки : Верхнее поле первое
Метод сжатия : С потерями
Бит/(Пиксели*Кадры) : 0.189
Размер потока : 382 Мбайт (86%)
Библиотека кодирования : Lavc51.44.0

Аудио
Идентификатор : 1
Формат : MPEG Audio
Версия формата : Version 1
Профиль формата : Layer 3
Режим : Joint stereo
Расширение режима : MS Stereo
Идентификатор кодека : 55
Идентификатор кодека/Подсказка : MP3
Продолжительность : 41 м.
Вид битрейта : Постоянный
Битрейт : 192 Кбит/сек
Каналы : 2 канала
Частота : 48,0 КГц
Метод сжатия : С потерями
Размер потока : 56,4 Мбайт (13%)
Выравнивание : Соединение по промежуткам
Продолжительность промежутка : 24 мс. (0,58 видеокадр)
Время предзагрузки промежутка : 816 мс.
Библиотека кодирования : LAME3.97
Общее
Полное имя : E:\UPLOADED\СЕРИАЛЫ\MENTALIST\Менталист Rip\Rip Менталист 4 сезон\14. На первый взгляд (At First Blush).avi
Формат : AVI
Формат/Информация : Audio Video Interleave
Размер файла : 564 Мбайт
Продолжительность : 43 м.
Общий поток : 1826 Кбит/сек
Библиотека кодирования : MPlayer

Видео
Идентификатор : 0
Формат : MPEG-4 Visual
Профиль формата : Simple@L1
Параметр BVOP формата : Нет
Параметр QPel формата : Нет
Параметр GMC формата : Без точки перехода
Параметр матрицы формата : Default (H.263)
Идентификатор кодека : DX50
Идентификатор кодека/Подсказка : DivX 5
Продолжительность : 43 м.
Битрейт : 1622 Кбит/сек
Ширина : 720 пикселей
Высота : 400 пикселей
Соотношение сторон : 16:9
Частота кадров : 23,976 кадра/сек
Цветовое пространство : YUV
Субдискретизация насыщенности : 4:2:0
Битовая глубина : 8 бит
Тип развёртки : Чересстрочная
Порядок развёртки : Верхнее поле первое
Метод сжатия : С потерями
Бит/(Пиксели*Кадры) : 0.235
Размер потока : 500 Мбайт (89%)
Библиотека кодирования : Lavc51.44.0

Аудио
Идентификатор : 1
Формат : MPEG Audio
Версия формата : Version 1
Профиль формата : Layer 3
Режим : Joint stereo
Расширение режима : MS Stereo
Идентификатор кодека : 55
Идентификатор кодека/Подсказка : MP3
Продолжительность : 43 м.
Вид битрейта : Постоянный
Битрейт : 192 Кбит/сек
Каналы : 2 канала
Частота : 48,0 КГц
Метод сжатия : С потерями
Размер потока : 59,2 Мбайт (11%)
Выравнивание : Соединение по промежуткам
Продолжительность промежутка : 24 мс. (0,58 видеокадр)
Время предзагрузки промежутка : 816 мс.
Библиотека кодирования : LAME3.97
Общее
Полное имя : E:\UPLOADED\СЕРИАЛЫ\MENTALIST\Менталист Rip\Rip Менталист 4 сезон\15. Война роз ( War of the Roses).avi
Формат : AVI
Формат/Информация : Audio Video Interleave
Размер файла : 480 Мбайт
Продолжительность : 41 м.
Общий поток : 1606 Кбит/сек
Библиотека кодирования : MPlayer

Видео
Идентификатор : 0
Формат : MPEG-4 Visual
Профиль формата : Simple@L1
Параметр BVOP формата : Нет
Параметр QPel формата : Нет
Параметр GMC формата : Без точки перехода
Параметр матрицы формата : Default (H.263)
Идентификатор кодека : DX50
Идентификатор кодека/Подсказка : DivX 5
Продолжительность : 41 м.
Битрейт : 1401 Кбит/сек
Ширина : 720 пикселей
Высота : 400 пикселей
Соотношение сторон : 16:9
Частота кадров : 23,976 кадра/сек
Цветовое пространство : YUV
Субдискретизация насыщенности : 4:2:0
Битовая глубина : 8 бит
Тип развёртки : Чересстрочная
Порядок развёртки : Верхнее поле первое
Метод сжатия : С потерями
Бит/(Пиксели*Кадры) : 0.203
Размер потока : 419 Мбайт (87%)
Библиотека кодирования : Lavc51.44.0

Аудио
Идентификатор : 1
Формат : MPEG Audio
Версия формата : Version 1
Профиль формата : Layer 3
Режим : Joint stereo
Расширение режима : MS Stereo
Идентификатор кодека : 55
Идентификатор кодека/Подсказка : MP3
Продолжительность : 41 м.
Вид битрейта : Постоянный
Битрейт : 192 Кбит/сек
Каналы : 2 канала
Частота : 48,0 КГц
Метод сжатия : С потерями
Размер потока : 57,4 Мбайт (12%)
Выравнивание : Соединение по промежуткам
Продолжительность промежутка : 24 мс. (0,58 видеокадр)
Время предзагрузки промежутка : 816 мс.
Библиотека кодирования : LAME3.97
Общее
Полное имя : E:\UPLOADED\СЕРИАЛЫ\MENTALIST\Менталист Rip\Rip Менталист 4 сезон\16. Его мысли были красными (His Thoughts Were Red Thoughts).avi
Формат : AVI
Формат/Информация : Audio Video Interleave
Размер файла : 429 Мбайт
Продолжительность : 42 м.
Общий поток : 1402 Кбит/сек
Библиотека кодирования : MPlayer

Видео
Идентификатор : 0
Формат : MPEG-4 Visual
Профиль формата : Simple@L1
Параметр BVOP формата : Нет
Параметр QPel формата : Нет
Параметр GMC формата : Без точки перехода
Параметр матрицы формата : Default (H.263)
Идентификатор кодека : DX50
Идентификатор кодека/Подсказка : DivX 5
Продолжительность : 42 м.
Битрейт : 1197 Кбит/сек
Ширина : 720 пикселей
Высота : 400 пикселей
Соотношение сторон : 16:9
Частота кадров : 23,976 кадра/сек
Цветовое пространство : YUV
Субдискретизация насыщенности : 4:2:0
Битовая глубина : 8 бит
Тип развёртки : Чересстрочная
Порядок развёртки : Верхнее поле первое
Метод сжатия : С потерями
Бит/(Пиксели*Кадры) : 0.173
Размер потока : 367 Мбайт (85%)
Библиотека кодирования : Lavc51.44.0

Аудио
Идентификатор : 1
Формат : MPEG Audio
Версия формата : Version 1
Профиль формата : Layer 3
Режим : Joint stereo
Расширение режима : MS Stereo
Идентификатор кодека : 55
Идентификатор кодека/Подсказка : MP3
Продолжительность : 42 м.
Вид битрейта : Постоянный
Битрейт : 192 Кбит/сек
Каналы : 2 канала
Частота : 48,0 КГц
Метод сжатия : С потерями
Размер потока : 58,8 Мбайт (14%)
Выравнивание : Соединение по промежуткам
Продолжительность промежутка : 24 мс. (0,58 видеокадр)
Время предзагрузки промежутка : 816 мс.
Библиотека кодирования : LAME3.97
Общее
Полное имя : E:\UPLOADED\СЕРИАЛЫ\MENTALIST\Менталист Rip\Rip Менталист 4 сезон\17. Дешевое Бургундское (Cheap Burgundy).avi
Формат : AVI
Формат/Информация : Audio Video Interleave
Размер файла : 482 Мбайт
Продолжительность : 43 м.
Общий поток : 1561 Кбит/сек
Библиотека кодирования : MPlayer

Видео
Идентификатор : 0
Формат : MPEG-4 Visual
Профиль формата : Simple@L1
Параметр BVOP формата : Нет
Параметр QPel формата : Нет
Параметр GMC формата : Без точки перехода
Параметр матрицы формата : Default (H.263)
Идентификатор кодека : DX50
Идентификатор кодека/Подсказка : DivX 5
Продолжительность : 43 м.
Битрейт : 1356 Кбит/сек
Ширина : 720 пикселей
Высота : 400 пикселей
Соотношение сторон : 16:9
Частота кадров : 23,976 кадра/сек
Цветовое пространство : YUV
Субдискретизация насыщенности : 4:2:0
Битовая глубина : 8 бит
Тип развёртки : Чересстрочная
Порядок развёртки : Верхнее поле первое
Метод сжатия : С потерями
Бит/(Пиксели*Кадры) : 0.196
Размер потока : 419 Мбайт (87%)
Библиотека кодирования : Lavc51.44.0

Аудио
Идентификатор : 1
Формат : MPEG Audio
Версия формата : Version 1
Профиль формата : Layer 3
Режим : Joint stereo
Расширение режима : MS Stereo
Идентификатор кодека : 55
Идентификатор кодека/Подсказка : MP3
Продолжительность : 43 м.
Вид битрейта : Постоянный
Битрейт : 192 Кбит/сек
Каналы : 2 канала
Частота : 48,0 КГц
Метод сжатия : С потерями
Размер потока : 59,2 Мбайт (12%)
Выравнивание : Соединение по промежуткам
Продолжительность промежутка : 24 мс. (0,58 видеокадр)
Время предзагрузки промежутка : 816 мс.
Библиотека кодирования : LAME3.97
Общее
Полное имя : E:\UPLOADED\СЕРИАЛЫ\MENTALIST\Менталист Rip\Rip Менталист 4 сезон\18. Румяные щечки (Ruddy Cheeks).avi
Формат : AVI
Формат/Информация : Audio Video Interleave
Размер файла : 499 Мбайт
Продолжительность : 43 м.
Общий поток : 1619 Кбит/сек
Библиотека кодирования : MPlayer

Видео
Идентификатор : 0
Формат : MPEG-4 Visual
Профиль формата : Simple@L1
Параметр BVOP формата : Нет
Параметр QPel формата : Нет
Параметр GMC формата : Без точки перехода
Параметр матрицы формата : Default (H.263)
Идентификатор кодека : DX50
Идентификатор кодека/Подсказка : DivX 5
Продолжительность : 43 м.
Битрейт : 1414 Кбит/сек
Ширина : 720 пикселей
Высота : 400 пикселей
Соотношение сторон : 16:9
Частота кадров : 23,976 кадра/сек
Цветовое пространство : YUV
Субдискретизация насыщенности : 4:2:0
Битовая глубина : 8 бит
Тип развёртки : Чересстрочная
Порядок развёртки : Верхнее поле первое
Метод сжатия : С потерями
Бит/(Пиксели*Кадры) : 0.205
Размер потока : 436 Мбайт (87%)
Библиотека кодирования : Lavc51.44.0

Аудио
Идентификатор : 1
Формат : MPEG Audio
Версия формата : Version 1
Профиль формата : Layer 3
Режим : Joint stereo
Расширение режима : MS Stereo
Идентификатор кодека : 55
Идентификатор кодека/Подсказка : MP3
Продолжительность : 43 м.
Вид битрейта : Постоянный
Битрейт : 192 Кбит/сек
Каналы : 2 канала
Частота : 48,0 КГц
Метод сжатия : С потерями
Размер потока : 59,2 Мбайт (12%)
Выравнивание : Соединение по промежуткам
Продолжительность промежутка : 24 мс. (0,58 видеокадр)
Время предзагрузки промежутка : 816 мс.
Библиотека кодирования : LAME3.97
Общее
Полное имя : E:\UPLOADED\СЕРИАЛЫ\MENTALIST\Менталист Rip\Rip Менталист 4 сезон\19. Розовое шампанское на льду (Pink Champagne on Ice).avi
Формат : AVI
Формат/Информация : Audio Video Interleave
Размер файла : 488 Мбайт
Продолжительность : 41 м.
Общий поток : 1654 Кбит/сек
Библиотека кодирования : MPlayer

Видео
Идентификатор : 0
Формат : MPEG-4 Visual
Профиль формата : Simple@L1
Параметр BVOP формата : Нет
Параметр QPel формата : Нет
Параметр GMC формата : Без точки перехода
Параметр матрицы формата : Default (H.263)
Идентификатор кодека : DX50
Идентификатор кодека/Подсказка : DivX 5
Продолжительность : 41 м.
Битрейт : 1450 Кбит/сек
Ширина : 720 пикселей
Высота : 400 пикселей
Соотношение сторон : 16:9
Частота кадров : 23,976 кадра/сек
Цветовое пространство : YUV
Субдискретизация насыщенности : 4:2:0
Битовая глубина : 8 бит
Тип развёртки : Чересстрочная
Порядок развёртки : Верхнее поле первое
Метод сжатия : С потерями
Бит/(Пиксели*Кадры) : 0.210
Размер потока : 427 Мбайт (88%)
Библиотека кодирования : Lavc51.44.0

Аудио
Идентификатор : 1
Формат : MPEG Audio
Версия формата : Version 1
Профиль формата : Layer 3
Режим : Joint stereo
Расширение режима : MS Stereo
Идентификатор кодека : 55
Идентификатор кодека/Подсказка : MP3
Продолжительность : 41 м.
Вид битрейта : Постоянный
Битрейт : 192 Кбит/сек
Каналы : 2 канала
Частота : 48,0 КГц
Метод сжатия : С потерями
Размер потока : 56,6 Мбайт (12%)
Выравнивание : Соединение по промежуткам
Продолжительность промежутка : 24 мс. (0,58 видеокадр)
Время предзагрузки промежутка : 816 мс.
Библиотека кодирования : LAME3.97
Общее
Полное имя : E:\UPLOADED\СЕРИАЛЫ\MENTALIST\Менталист Rip\Rip Менталист 4 сезон\20. Что-то подгнило в Рэдманде (Something Rotten in Redmund).avi
Формат : AVI
Формат/Информация : Audio Video Interleave
Размер файла : 494 Мбайт
Продолжительность : 42 м.
Общий поток : 1617 Кбит/сек
Библиотека кодирования : MPlayer

Видео
Идентификатор : 0
Формат : MPEG-4 Visual
Профиль формата : Simple@L1
Параметр BVOP формата : Нет
Параметр QPel формата : Нет
Параметр GMC формата : Без точки перехода
Параметр матрицы формата : Default (H.263)
Идентификатор кодека : DX50
Идентификатор кодека/Подсказка : DivX 5
Продолжительность : 42 м.
Битрейт : 1412 Кбит/сек
Ширина : 720 пикселей
Высота : 400 пикселей
Соотношение сторон : 16:9
Частота кадров : 23,976 кадра/сек
Цветовое пространство : YUV
Субдискретизация насыщенности : 4:2:0
Битовая глубина : 8 бит
Тип развёртки : Чересстрочная
Порядок развёртки : Верхнее поле первое
Метод сжатия : С потерями
Бит/(Пиксели*Кадры) : 0.204
Размер потока : 431 Мбайт (87%)
Библиотека кодирования : Lavc51.44.0

Аудио
Идентификатор : 1
Формат : MPEG Audio
Версия формата : Version 1
Профиль формата : Layer 3
Режим : Joint stereo
Расширение режима : MS Stereo
Идентификатор кодека : 55
Идентификатор кодека/Подсказка : MP3
Продолжительность : 42 м.
Вид битрейта : Постоянный
Битрейт : 192 Кбит/сек
Каналы : 2 канала
Частота : 48,0 КГц
Метод сжатия : С потерями
Размер потока : 58,6 Мбайт (12%)
Выравнивание : Соединение по промежуткам
Продолжительность промежутка : 24 мс. (0,58 видеокадр)
Время предзагрузки промежутка : 816 мс.
Библиотека кодирования : LAME3.97
Общее
Полное имя : E:\UPLOADED\СЕРИАЛЫ\MENTALIST\Менталист Rip\Rip Менталист 4 сезон\21. Рубиновые босоножки (Ruby Slippers).avi
Формат : AVI
Формат/Информация : Audio Video Interleave
Размер файла : 521 Мбайт
Продолжительность : 41 м.
Общий поток : 1737 Кбит/сек
Библиотека кодирования : MPlayer

Видео
Идентификатор : 0
Формат : MPEG-4 Visual
Профиль формата : Simple@L1
Параметр BVOP формата : Нет
Параметр QPel формата : Нет
Параметр GMC формата : Без точки перехода
Параметр матрицы формата : Default (H.263)
Идентификатор кодека : DX50
Идентификатор кодека/Подсказка : DivX 5
Продолжительность : 41 м.
Битрейт : 1533 Кбит/сек
Ширина : 720 пикселей
Высота : 400 пикселей
Соотношение сторон : 16:9
Частота кадров : 23,976 кадра/сек
Цветовое пространство : YUV
Субдискретизация насыщенности : 4:2:0
Битовая глубина : 8 бит
Тип развёртки : Чересстрочная
Порядок развёртки : Верхнее поле первое
Метод сжатия : С потерями
Бит/(Пиксели*Кадры) : 0.222
Размер потока : 459 Мбайт (88%)
Библиотека кодирования : Lavc51.44.0

Аудио
Идентификатор : 1
Формат : MPEG Audio
Версия формата : Version 1
Профиль формата : Layer 3
Режим : Joint stereo
Расширение режима : MS Stereo
Идентификатор кодека : 55
Идентификатор кодека/Подсказка : MP3
Продолжительность : 41 м.
Вид битрейта : Постоянный
Битрейт : 192 Кбит/сек
Каналы : 2 канала
Частота : 48,0 КГц
Метод сжатия : С потерями
Размер потока : 57,5 Мбайт (11%)
Выравнивание : Соединение по промежуткам
Продолжительность промежутка : 24 мс. (0,58 видеокадр)
Время предзагрузки промежутка : 816 мс.
Библиотека кодирования : LAME3.97
Общее
Полное имя : E:\UPLOADED\СЕРИАЛЫ\MENTALIST\Менталист Rip\Rip Менталист 4 сезон\22. До скорого, и спасибо за красного окуня (So Long, and Thanks for All the Red Snapper).avi
Формат : AVI
Формат/Информация : Audio Video Interleave
Размер файла : 638 Мбайт
Продолжительность : 42 м.
Общий поток : 2083 Кбит/сек
Библиотека кодирования : MPlayer

Видео
Идентификатор : 0
Формат : MPEG-4 Visual
Профиль формата : Simple@L1
Параметр BVOP формата : Нет
Параметр QPel формата : Нет
Параметр GMC формата : Без точки перехода
Параметр матрицы формата : Default (H.263)
Идентификатор кодека : DX50
Идентификатор кодека/Подсказка : DivX 5
Продолжительность : 42 м.
Битрейт : 1879 Кбит/сек
Ширина : 720 пикселей
Высота : 400 пикселей
Соотношение сторон : 16:9
Частота кадров : 23,976 кадра/сек
Цветовое пространство : YUV
Субдискретизация насыщенности : 4:2:0
Битовая глубина : 8 бит
Тип развёртки : Чересстрочная
Порядок развёртки : Верхнее поле первое
Метод сжатия : С потерями
Бит/(Пиксели*Кадры) : 0.272
Размер потока : 575 Мбайт (90%)
Библиотека кодирования : Lavc51.44.0

Аудио
Идентификатор : 1
Формат : MPEG Audio
Версия формата : Version 1
Профиль формата : Layer 3
Режим : Joint stereo
Расширение режима : MS Stereo
Идентификатор кодека : 55
Идентификатор кодека/Подсказка : MP3
Продолжительность : 42 м.
Вид битрейта : Постоянный
Битрейт : 192 Кбит/сек
Каналы : 2 канала
Частота : 48,0 КГц
Метод сжатия : С потерями
Размер потока : 58,8 Мбайт (9%)
Выравнивание : Соединение по промежуткам
Продолжительность промежутка : 24 мс. (0,58 видеокадр)
Время предзагрузки промежутка : 816 мс.
Библиотека кодирования : LAME3.97
Общее
Полное имя : E:\UPLOADED\СЕРИАЛЫ\MENTALIST\Менталист Rip\Rip Менталист 4 сезон\23. Красный Ровер, красный Ровер (Red Rover, Red Rover).avi
Формат : AVI
Формат/Информация : Audio Video Interleave
Размер файла : 508 Мбайт
Продолжительность : 42 м.
Общий поток : 1665 Кбит/сек
Библиотека кодирования : MPlayer

Видео
Идентификатор : 0
Формат : MPEG-4 Visual
Профиль формата : Simple@L1
Параметр BVOP формата : Нет
Параметр QPel формата : Нет
Параметр GMC формата : Без точки перехода
Параметр матрицы формата : Default (H.263)
Идентификатор кодека : DX50
Идентификатор кодека/Подсказка : DivX 5
Продолжительность : 42 м.
Битрейт : 1461 Кбит/сек
Ширина : 720 пикселей
Высота : 400 пикселей
Соотношение сторон : 16:9
Частота кадров : 23,976 кадра/сек
Цветовое пространство : YUV
Субдискретизация насыщенности : 4:2:0
Битовая глубина : 8 бит
Тип развёртки : Чересстрочная
Порядок развёртки : Верхнее поле первое
Метод сжатия : С потерями
Бит/(Пиксели*Кадры) : 0.212
Размер потока : 445 Мбайт (88%)
Библиотека кодирования : Lavc51.44.0

Аудио
Идентификатор : 1
Формат : MPEG Audio
Версия формата : Version 1
Профиль формата : Layer 3
Режим : Joint stereo
Расширение режима : MS Stereo
Идентификатор кодека : 55
Идентификатор кодека/Подсказка : MP3
Продолжительность : 42 м.
Вид битрейта : Постоянный
Битрейт : 192 Кбит/сек
Каналы : 2 канала
Частота : 48,0 КГц
Метод сжатия : С потерями
Размер потока : 58,5 Мбайт (12%)
Выравнивание : Соединение по промежуткам
Продолжительность промежутка : 24 мс. (0,58 видеокадр)
Время предзагрузки промежутка : 816 мс.
Библиотека кодирования : LAME3.97
Общее
Полное имя : E:\UPLOADED\СЕРИАЛЫ\MENTALIST\Менталист Rip\Rip Менталист 4 сезон\24. Багряная шляпа (The Crimson Hat).avi
Формат : AVI
Формат/Информация : Audio Video Interleave
Размер файла : 564 Мбайт
Продолжительность : 42 м.
Общий поток : 1836 Кбит/сек
Библиотека кодирования : MPlayer

Видео
Идентификатор : 0
Формат : MPEG-4 Visual
Профиль формата : Simple@L1
Параметр BVOP формата : Нет
Параметр QPel формата : Нет
Параметр GMC формата : Без точки перехода
Параметр матрицы формата : Default (H.263)
Идентификатор кодека : DX50
Идентификатор кодека/Подсказка : DivX 5
Продолжительность : 42 м.
Битрейт : 1631 Кбит/сек
Ширина : 720 пикселей
Высота : 400 пикселей
Соотношение сторон : 16:9
Частота кадров : 23,976 кадра/сек
Цветовое пространство : YUV
Субдискретизация насыщенности : 4:2:0
Битовая глубина : 8 бит
Тип развёртки : Чересстрочная
Порядок развёртки : Верхнее поле первое
Метод сжатия : С потерями
Бит/(Пиксели*Кадры) : 0.236
Размер потока : 501 Мбайт (89%)
Библиотека кодирования : Lavc51.44.0

Аудио
Идентификатор : 1
Формат : MPEG Audio
Версия формата : Version 1
Профиль формата : Layer 3
Режим : Joint stereo
Расширение режима : MS Stereo
Идентификатор кодека : 55
Идентификатор кодека/Подсказка : MP3
Продолжительность : 42 м.
Вид битрейта : Постоянный
Битрейт : 192 Кбит/сек
Каналы : 2 канала
Частота : 48,0 КГц
Метод сжатия : С потерями
Размер потока : 59,0 Мбайт (10%)
Выравнивание : Соединение по промежуткам
Продолжительность промежутка : 24 мс. (0,58 видеокадр)
Время предзагрузки промежутка : 816 мс.
Библиотека кодирования : LAME3.97
01. Алые ленты / Scarlet Ribbons
02. Маленькая красная книжка / Little Red Book
03. Красивый красный шар / Pretty Red Balloon
04. Кольцо вокруг Рози / Ring Around the Rosie
05. Кровь и песок / Blood and Sand
06. Куда подевался Кармин О’Брайан? / Where in the World is Carmine O'Brien?
07. Мигающий красный свет / Blinking Red Light
08. Розовые платья / Pink Tops
09. Красная майка / The Redshirt
10. Фуга в красном / Fugue in Red
11. Всегда ставь на красное / Always Bet on Red
12. Мой кровавый Валентин / My Bloody Valentine
13. Красный - это новый черный / Red is the New Black
14. На первый взгляд / At First Blush
15. Война роз / War of the Roses
16. Его мысли были красными / His Thoughts Were Red Thoughts
17. Дешевое Бургундское / Cheap Burgundy
18. Румяные щечки / Ruddy Cheeks
19. Розовое шампанское на льду / Pink Champagne on Ice
20. Что-то подгнило в Рэдманде / Something Rotten in Redmund
21. Рубиновые босоножки / Ruby Slippers
22. До скорого, и спасибо за красного окуня / So Long, and Thanks for All the Red Snapper
23. Красный Ровер, красный Ровер / Red Rover, Red Rover
24. Багряная шляпа / The Crimson Hat
МЕНТАЛИСТ 1-Й СЕЗОН ТВ-3
МЕНТАЛИСТ 2-Й СЕЗОН ТВ-3
МЕНТАЛИСТ 3-Й СЕЗОН ТВ-3
Продолжительность серии: серия ~00:43 минут
Качество видео: WEB-DLRip
Формат: Avi
Видеокодек: DivX 5
Битрейт видео: 1200~2000 Кбит/сек
Размер кадра: 720x400 (16:9), 23,976 fps
Аудиокодек: Mp3
Битрейт аудио:
аудио: 48 kHz, Mp3, 2/0 (L,R), ~192.00 kbps avg, дублированный ТВ-3

Менталист/The Mentalist все раздачи сериала

Скриншоты:


 Торрент: Платиновая раздача  Зарегистрирован
 
Скачать


 Зарегистрирован:   06 Янв 2013 12:41:07
 Размер:   12 GB  (
 Рейтинг:   4.9 (Голосов: 329)
 Поблагодарили:   1306
 Проверка:   Оформление проверено модератором 06 Янв 2013 12:42:36
Как cкачать  ·  Как раздать  ·  Правильно оформить  ·  Поднять ратио!  
Максим Пупкин
Стаж: 12 лет 9 мес.
Сообщений: 256
Ratio: 10.15
Раздал: 28.65 TB
100%
где 5 сезон , новые серии?
WOLF 80 ®
Uploader 100+
Стаж: 13 лет 3 мес.
Сообщений: 480
Ratio: 3613.935
Раздал: 157 TB
Поблагодарили: 31808
100%
Откуда: Санкт-Петербург
russia.gif
Максим Пупкин писал(а): Перейти к сообщению
где 5 сезон , новые серии?


По поводу 5 сезона в дубляже все вопросы к каналу ТВ-3. Когда начнут показывать тогда и будут выкладываться.

_________________
На первом месте у меня семья и дети, а хобби =>Мои РЕЛИЗЫ <= в свободное от них время
alex_buric
Стаж: 11 лет 9 мес.
Сообщений: 1
Ratio: 118.253
62.86%
ukraine.gif
Очень хороший фильм!
Озвучка от ТВ3 на мой взгляд самая лучшая!
Goof82
Стаж: 12 лет 11 мес.
Сообщений: 15
Ratio: 1.779
15.09%
по Univesal Channel (Россия) начали показ 5-го сезона с 6 марта. Можно ли ожидать релиза?
WOLF 80 ®
Uploader 100+
Стаж: 13 лет 3 мес.
Сообщений: 480
Ratio: 3613.935
Раздал: 157 TB
Поблагодарили: 31808
100%
Откуда: Санкт-Петербург
russia.gif
Goof82 писал(а): Перейти к сообщению
по Univesal Channel (Россия) начали показ 5-го сезона с 6 марта. Можно ли ожидать релиза?

WOLF 80 писал(а): Перейти к сообщению
Максим Пупкин писал(а): Перейти к сообщению
где 5 сезон , новые серии?


По поводу 5 сезона в дубляже все вопросы к каналу ТВ-3. Когда начнут показывать тогда и будут выкладываться.

_________________
На первом месте у меня семья и дети, а хобби =>Мои РЕЛИЗЫ <= в свободное от них время
Zariko23
Стаж: 11 лет 9 мес.
Сообщений: 7
Ratio: 5.5
100%
спасибо за раздачу, сериал на любителя. Я любитель такого жанра.
hudgisala
Стаж: 9 лет 7 мес.
Сообщений: 7
Ratio: 4.891
100%
спасибо за раздачу, сериал просто супер.
Баюн80
Стаж: 12 лет 1 мес.
Сообщений: 240
Ratio: 12.974
100%
Откуда: От туда
russia.gif
Так и хочется сказать после очередной серии "Кимбел Чо, да Кимбел Чо, навалился на плечоо..."
ylkakrya
Стаж: 5 лет 9 мес.
Сообщений: 4
3.33%
раздайте, пожалуйста
sinecure
Стаж: 9 лет 5 мес.
Сообщений: 95
Ratio: 415.674
Раздал: 18.07 TB
Поблагодарили: 7
100%
Откуда: Siberia
mongolia.gif
Дорогие друзья, прошу помощи,
если конечно, заявленная концепция
придётся вам по душе, поддержите раздачу, а то снесут:
https://nnmclub.to/forum/viewtopic.php?t=1281796
Ваши комменты и обращения к модерам могут ей помочь
выйти из форума "Видео (temp)" и сохраниться на трекере.
Спасибо.

PS.
И проблема "какого-то ужасного эха" в раздаче
разрешилась сама собой,
самым естественным образом )
Показать сообщения:   
Начать новую тему   Ответить на тему    Торрент-трекер NNM-Club -> Зарубежные сериалы -> Менталист / The Mentalist ; Теория Лжи / Lie To Me Часовой пояс: GMT + 3
Страница 1 из 1