Классический форум-трекер
canvas not supported
Нас вместе: 4 233 361

Первый скорый (2006) SATRip


 
 
RSS
Начать новую тему   Ответить на тему    Торрент-трекер NNM-Club -> Документалистика и Телепередачи -> Музыкальные шоу
Автор Сообщение
smpeal ®
Стаж: 11 лет 9 мес.
Сообщений: 62
Ratio: 99.87
Поблагодарили: 7340
100%
ussr.gif
Первый скорый (2006) SATRip
Название: Первый скорый

Режиссер / Телекомпания: Олег Гусев / Первый канал
Производство: Ленфильм
Год выпуска: 2006
Жанр: Музыкальное шоу, комедия

Описание:
Первый Скорый — новогодний музыкальный фильм, вышедший в эфир на Первом канале в ночь на
1 января 2006 года. Первый канал решил отойти в 2005 году от правил и вместо праздничного "Огонька" показать в новогоднем эфире музыкальный фильм.

Картину почти два месяца снимал в трех огромных павильонах «Ленфильма» питерский режиссер Олег Гусев, известный по огромному количеству снятых им видеоклипов. Такой подход объясняет и сочную насыщенную «картинку», которой Гусев настойчиво добивается в кадре ото всех — артистов, гримеров, художников по костюмам и бутафоров.

Действие фильма разворачивается в наши дни, место — некий городок, куда волей случая заносит известных артистов. Картина строится на скетчах из популярных фильмов.

Исполнители:
Николай Фоменко и Иван Ургант - выступят проводниками в этом кинопутешествии
(играют самих себя). Правда, лишь репликами ведущих их праздничная деятельность не ограничится. Парочка переоденется в мексиканские костюмы (этакий привет фильму "Отчаянный" с Антонио Бандерасом) и исполнит зажигательные частушки!
Максим Галкин в начале фильма исполнит музыкальные пародии.
Юрий Гальцев и Елена Воробей обыграют небольшой эпизод из комедии «Иван Васильевич меняет профессию», а София Ротару исполнит песню из этого же киношедевра.
Сосо Павлиашвили исполнит песню "Bessame Mucho", а Анастасия Стоцкая в паре с Дмитрием Дюжевым станцуют танец из «Криминального чтива».
Леонид Агутин в декорациях к фильму «Операция «Ы» вместе с «подельниками» Семеном Стругачевым и Василием Бычковым исполнит песню «Постой, паровоз».
Валерия в антураже к известной итальянской картине «Вчера, сегодня, завтра» зажжёт под «Мамбу» (совершенно неожиданно в массовку «вписался» супруг певицы Иосиф Пригожин).
Снова встретятся герои фильма "Мы из джаза" Костик (Игорь Скляр) и Степан (Александр Панкратов-Чёрный), а Лариса Долина споет песню, которую много лет назад исполняла в этом фильме.
Дмитрий Певцов исполнит песню "Купидон" из фильма "Не может быть".
Главным же сюрпризом станет "случайная" встреча на вокзале актеров самой новогодней комедии "Ирония судьбы, или С легким паром!" Барбары Брыльской и Юрия Яковлева.
А вот Андрей Данилко составит пару самому себе... Номер, в котором артист общается с собою же, только в образе легендарной Верки Сердючки, оказался по съемке одним из самых сложных.
Дмитрий Нагиев будет чемпионом перевоплощения в эту новогоднюю ночь, из начальника киновокзала он легко перевоплотится в простого дворника, потом предстанет в образе «аппетитной» кассирши, а в конце фильма и вовсе нацепит пестрые юбки да монисто, чтоб от лица цыганки нагадать всем счастья в новом году!
В картине также заняты: Филипп Киркоров (он же портной и парикмахер с песней «Выглядеть на 100»), ГлюкOza в образе Мерелин Монро (песню «Юра» она посвятит всем известным Юриям — от Гагарина до Лужкова), Иванушки International (песню «Три белых коня» они будут петь в коньках), дуэт "Чай вдвоем" (поздравительная песня "С Новым Годом") и многие, многие другие.
Но самое примечательное, на киновокзале произойдут роковые встречи героев Владимира Этуша и Натальи Варлей, Людмилы Гурченко и Александра Михайлова, Ирины Алферовой и Михаила Боярского.

Продолжительность: 01:29:13

Видеокодек: Xvid
Битрейт видео: 1995 Kbps
Размер кадра: 704x512
Качество видео: SATRip
Аудиокодек: AC3
Битрейт аудио: 192 Kbps, 2 канала
Общее
Полное имя : Z:\ТВ фильмы и спектакли\Первый скорый (2006) nnm-club.avi
Формат : AVI
Формат/Информация : Audio Video Interleave
Размер файла : 1,37 Гбайт
Продолжительность : 1 ч. 29 м.
Общий поток : 2197 Кбит/сек
Программа кодирования : VirtualDubMod 1.5.10.2 (build 2542/release)
Библиотека кодирования : VirtualDubMod build 2542/release

Видео
Идентификатор : 0
Формат : MPEG-4 Visual
Профиль формата : Advanced Simple@L5
Параметр BVOP формата : 2
Параметр QPel формата : Нет
Параметр GMC формата : Без точки перехода
Параметр матрицы формата : Default (MPEG)
Режим смешивания : Сжатый битовый поток
Идентификатор кодека : XVID
Идентификатор кодека/Подсказка : XviD
Продолжительность : 1 ч. 29 м.
Битрейт : 1995 Кбит/сек
Ширина : 704 пикселя
Высота : 512 пикселей
Соотношение сторон : 1,375
Частота кадров : 25,000 кадров/сек
Цветовое пространство : YUV
Субдискретизация насыщенности : 4:2:0
Битовая глубина : 8 бит
Тип развёртки : Прогрессивная
Метод сжатия : С потерями
Бит/(Пиксели*Кадры) : 0.221
Размер потока : 1,24 Гбайт (91%)
Библиотека кодирования : XviD 64

Аудио
Идентификатор : 1
Формат : AC-3
Формат/Информация : Audio Coding 3
Расширение режима : CM (complete main)
Параметр Endianness формата : Big
Идентификатор кодека : 2000
Продолжительность : 1 ч. 29 м.
Вид битрейта : Постоянный
Битрейт : 192 Кбит/сек
Каналы : 2 канала
Расположение каналов : Front: L R
Частота : 48,0 КГц
Битовая глубина : 16 бит
Метод сжатия : С потерями
Задержка видео : 16 мс.
Размер потока : 123 Мбайт (9%)
Выравнивание : Разделение по промежуткам
Продолжительность промежутка : 40 мс. (1,00 видеокадр)
Время предзагрузки промежутка : 500 мс.
Скриншоты:
[NNM-Club.ru]_Perviy.skoriy.2006.SATrip.avi.torrent
 Торрент: Платиновая раздача  Зарегистрирован
 
Скачать


Примагнититься
 Зарегистрирован:   06 Янв 2013 16:39:20
 Размер:   1.37 GB  (
 Рейтинг:   4.1 (Голосов: 19)
 Поблагодарили:   76
 Проверка:   Оформление проверено модератором 08 Янв 2013 12:21:47
Как cкачать  ·  Как раздать  ·  Правильно оформить  ·  Поднять ратио!  
Показать сообщения:   
Начать новую тему   Ответить на тему    Торрент-трекер NNM-Club -> Документалистика и Телепередачи -> Музыкальные шоу Часовой пояс: GMT + 3
Страница 1 из 1