Классический форум-трекер
canvas not supported
Нас вместе: 4 233 343

Почти смешная история (2004) TVRip


 
 
RSS
Начать новую тему   Ответить на тему    Торрент-трекер NNM-Club -> Документалистика и Телепередачи -> Отечественная история
Автор Сообщение
smpeal ®
Стаж: 11 лет 9 мес.
Сообщений: 62
Ratio: 99.87
Поблагодарили: 7340
100%
ussr.gif
Почти смешная история (2004) TVRip
Название: Почти смешная история

Режиссер / Телекомпания: Валерий Спирин / НТВ
Год выпуска: 2004
Жанр: Документальный

Описание:
Самый правдивый курс Истории СССР. Героическая биография одной шестой части суши, составленная из анекдотов, карикатур и постановлений ЦК КПСС.
— Юмор советской жизни: что может забавлять того, кто родился в нашей стране?
— Самые веселые времена в нашей истории: правда ли что они были?
— Особенности национальной юмористики: как отличить сатиру от юмора?
— Черный юмор отца народов: почему шутки Сталина были антисоветскими?
— Клоуны советского политического театра: он пошутил или он серьезно?
— Эзопов язык анекдота: почему наш анекдот так любит репрессии?
А также: Смех сквозь слезы как главное достижение нашей жизни.
И несложные потребности человеческого низа как безопасный юмор.

Участники: Михаил Жванецкий, Геннадий Хазанов, Борис Ефимов, Николай Фоменко и др.

Продолжительность: 00:43:39

Видеокодек: Xvid
Битрейт видео: 2187 Kbps
Размер кадра: 704x512
Качество видео: TVRip
Аудиокодек: AC3
Битрейт аудио: 384 Kbps, 2 канала
Общее
Полное имя : Z:\Фильмы\Документальные\Почти смешная история (2004).avi
Формат : AVI
Формат/Информация : Audio Video Interleave
Размер файла : 806 Мбайт
Продолжительность : 43 м.
Общий поток : 2581 Кбит/сек
Программа кодирования : VirtualDubMod 1.5.10.2 (build 2542/release)
Библиотека кодирования : VirtualDubMod build 2542/release

Видео
Идентификатор : 0
Формат : MPEG-4 Visual
Профиль формата : Advanced Simple@L5
Параметр BVOP формата : 2
Параметр QPel формата : Нет
Параметр GMC формата : Без точки перехода
Параметр матрицы формата : Default (H.263)
Режим смешивания : Сжатый битовый поток
Идентификатор кодека : XVID
Идентификатор кодека/Подсказка : XviD
Продолжительность : 43 м.
Битрейт : 2187 Кбит/сек
Ширина : 704 пикселя
Высота : 512 пикселей
Соотношение сторон : 5:4
Соотношение сторон в оригинале : 1,375
Частота кадров : 25,000 кадров/сек
Цветовое пространство : YUV
Субдискретизация насыщенности : 4:2:0
Битовая глубина : 8 бит
Тип развёртки : Прогрессивная
Метод сжатия : С потерями
Бит/(Пиксели*Кадры) : 0.243
Размер потока : 683 Мбайт (85%)
Библиотека кодирования : XviD 64

Аудио
Идентификатор : 1
Формат : AC-3
Формат/Информация : Audio Coding 3
Расширение режима : CM (complete main)
Параметр Endianness формата : Big
Идентификатор кодека : 2000
Продолжительность : 43 м.
Вид битрейта : Постоянный
Битрейт : 384 Кбит/сек
Каналы : 2 канала
Расположение каналов : Front: L R
Частота : 48,0 КГц
Битовая глубина : 16 бит
Метод сжатия : С потерями
Размер потока : 120 Мбайт (15%)
Выравнивание : Разделение по промежуткам
Продолжительность промежутка : 40 мс. (1,00 видеокадр)
Время предзагрузки промежутка : 500 мс.
Скриншоты:


Время раздачи: По выходным с 12 до 24, иногда в будни вечером
Pochti.smeshnaia.istoria.2004.nnm-club.avi.torrent
 Торрент: Платиновая раздача  Зарегистрирован
 
Скачать


Примагнититься
 Зарегистрирован:   07 Янв 2013 22:48:37
 Размер:   806 MB  (
 Рейтинг:   4.3 (Голосов: 26)
 Поблагодарили:   125
 Проверка:   Оформление проверено модератором 11 Янв 2013 12:34:59
Как cкачать  ·  Как раздать  ·  Правильно оформить  ·  Поднять ратио!  
autenkin
Стаж: 12 лет
Сообщений: 511
Ratio: 6.025
100%
Теперь зато будет не до шуток.
Trixxxy
Стаж: 10 лет 4 мес.
Сообщений: 1741
Ratio: 6.016
100%
papuanewguinea.gif
При чем тут фильм с Глузским?

_________________
Да пофиг.
iMitrich
Стаж: 13 лет 1 мес.
Сообщений: 170
Ratio: 3.062
100%
russia.gif
Фильм замечательный, но кто Такой рекламный плакат выложил? Маленькие головы Антоновой и Глузского прилепили на чужие тела. Школьник лучше бы сделал...
Solar81
Стаж: 11 лет 6 мес.
Сообщений: 461
Ratio: 8.978
47.89%
russia.gif
У кого лучше спросить, как оно было в СССР? Ясно дело у евреев.
Показать сообщения:   
Начать новую тему   Ответить на тему    Торрент-трекер NNM-Club -> Документалистика и Телепередачи -> Отечественная история Часовой пояс: GMT + 3
Страница 1 из 1