Классический форум-трекер
canvas not supported
Нас вместе: 4 232 315

Монстры на каникулах / Hotel Transylvania (2012) [H.264] BDRip [Line]


 
 
RSS
Начать новую тему   Ответить на тему    Торрент-трекер NNM-Club -> Архив торрентов -> Архив Мультфильмов
Автор Сообщение
art-61 ®
Стаж: 12 лет 10 мес.
Сообщений: 1094
Ratio: 119.581
Поблагодарили: 143433
100%
Откуда: Санкт-Петербург
russia.gif
Монстры на каникулах / Hotel Transylvania (2012) BDRip
Русское название: Монстры на каникулах
Оригинальное название: Hotel Transylvania
Год выпуска: 2012
Производство: США | Columbia Pictures, Sony Pictures Animation
Жанр: Mультфильм, Kомедия, Cемейный

Описание:
Граф Дракула для себя и своей любимой дочки построил хорошо укрытый от посторонних глаз отель, куда монстры со всего света приезжают отдохнуть от семейных забот, повседневной суеты и, конечно… людей. Но вездесущие американские туристы проникают и сюда.

Дата мировой премьеры: 8 сентября 2012
Дата российской премьеры: 18 октября 2012, «WDSSPR»
Дата выхода DVD релиза: 29 января 2013, «Columbia/Sony»
Дата выхода Blu-Ray релиза: 29 января 2013, «Columbia/Sony»

Режиссер: Генндий Тартаковский
Продюсер: Мишель Мурдокка, Лидия Боттегони, Адам Сэндлер
Актеры: Адам Сэндлер, Энди Сэмберг, Селена Гомес, Кевин Джеймс, Фрэн Дрешер, Стив Бушеми, Молли Шеннон, Дэвид Спейд, Си-Ло, Джон Ловиц

Продолжительность: 01:31:31
Перевод: Дублированный [Чистый Звук]
Субтитры: Вшитые отключаемые
Язык субтитров: Английские, английские (SDH), английские (SDH Colored), русские



Видеокодек: MPEG-4 AVC/H.264
Битрейт видео: 1710 Кbps
Размер кадра: 960x518 (1,85:1), 23,976 fps, 0.143 bit/pixel
Качество видео: BDRip / исх. Hotel Transylvania 2012 1080p Blu ray Remux AVC DTS HD MA 5 1 KRaLiMaRKo
Аудио#1: 48 kHz, AC3 Dolby Digital, 2/0 (L,R) ch, ~192 kbps avg | [Русский, Дубляж]
Аудио#2: 48 kHz, AC3 Dolby Digital, 3/2 (L,C,R,l,r) + LFE ch, ~384.00 kbps avg | [Английский]
Общее
Уникальный идентификатор : 234928432934653338000623430553195575079 (0xB0BD920445916DDD937DCA8F0598F727)
Полное имя : E:\Monstry.na.Kanikulah.2012.D.BDRip.mkv
Формат : Matroska
Версия формата : Version 2
Размер файла : 1,46 Гбайт
Продолжительность : 1 ч. 31 м.
Общий поток : 2288 Кбит/сек
Название фильма
Дата кодирования : UTC 2013-01-13 11:48:29
Программа кодирования : mkvmerge v5.7.0 ('The Whirlwind') built on Jul 8 2012 20:08:51
Библиотека кодирования : libebml v1.2.3 + libmatroska v1.3.0

Видео
Идентификатор : 1
Формат : AVC
Формат/Информация : Advanced Video Codec
Профиль формата : High@L4.1
Параметр CABAC формата : Да
Параметр ReFrames формата : 12 кадров
Идентификатор кодека : V_MPEG4/ISO/AVC
Продолжительность : 1 ч. 31 м.
Битрейт : 1710 Кбит/сек
Ширина : 960 пикселей
Высота : 518 пикселей
Соотношение сторон : 1,85:1
Режим частоты кадров : Постоянный
Частота кадров : 23,976 кадра/сек
Цветовое пространство : YUV
Субдискретизация насыщенности : 4:2:0
Битовая глубина : 8 бит
Тип развёртки : Прогрессивная
Бит/(Пиксели*Кадры) : 0.143
Размер потока : 1,07 Гбайт (73%)
Заголовок : Монстры на каникулах
Библиотека кодирования : x264 core 128 r2216M 198a7ea
Настройки программы : cabac=1 / ref=13 / deblock=1:-2:-1 / analyse=0x3:0x133 / me=umh / subme=9 / psy=1 / psy_rd=1.05:0.00 / mixed_ref=1 / me_range=32 / chroma_me=1 / trellis=2 / 8x8dct=1 / cqm=0 / deadzone=21,11 / fast_pskip=0 / chroma_qp_offset=-2 / threads=4 / lookahead_threads=1 / sliced_threads=0 / nr=0 / decimate=1 / interlaced=0 / bluray_compat=0 / constrained_intra=0 / bframes=14 / b_pyramid=1 / b_adapt=2 / b_bias=0 / direct=3 / weightb=1 / open_gop=0 / weightp=2 / keyint=240 / keyint_min=23 / scenecut=40 / intra_refresh=0 / rc_lookahead=200 / rc=2pass / mbtree=1 / bitrate=1710 / ratetol=1.0 / qcomp=0.70 / qpmin=0 / qpmax=69 / qpstep=4 / cplxblur=20.0 / qblur=0.5 / vbv_maxrate=20000 / vbv_bufsize=25000 / nal_hrd=none / ip_ratio=1.35 / aq=1:0.75
Язык : English
Default : Да
Forced : Нет

Аудио #1
Идентификатор : 2
Формат : AC-3
Формат/Информация : Audio Coding 3
Расширение режима : CM (complete main)
Параметр Endianness формата : Big
Идентификатор кодека : A_AC3
Продолжительность : 1 ч. 31 м.
Вид битрейта : Постоянный
Битрейт : 192 Кбит/сек
Каналы : 2 канала
Расположение каналов : Front: L R
Частота : 48,0 КГц
Битовая глубина : 16 бит
Метод сжатия : С потерями
Задержка видео : 27 мс.
Размер потока : 126 Мбайт (8%)
Заголовок : чистый звук
Язык : Russian
Default : Да
Forced : Да

Аудио #2
Идентификатор : 3
Формат : AC-3
Формат/Информация : Audio Coding 3
Расширение режима : CM (complete main)
Параметр Endianness формата : Big
Идентификатор кодека : A_AC3
Продолжительность : 1 ч. 31 м.
Вид битрейта : Постоянный
Битрейт : 384 Кбит/сек
Каналы : 6 каналов
Расположение каналов : Front: L C R, Side: L R, LFE
Частота : 48,0 КГц
Битовая глубина : 16 бит
Метод сжатия : С потерями
Задержка видео : 27 мс.
Размер потока : 251 Мбайт (17%)
Заголовок : Original | DD 5.1 @ 384 kbps
Язык : English
Default : Нет
Forced : Нет

Текст #1
Идентификатор : 4
Формат : UTF-8
Идентификатор кодека : S_TEXT/UTF8
Идентификатор кодека/Информация : UTF-8 Plain Text
Язык : English
Default : Нет
Forced : Нет

Текст #2
Идентификатор : 5
Формат : UTF-8
Идентификатор кодека : S_TEXT/UTF8
Идентификатор кодека/Информация : UTF-8 Plain Text
Заголовок : SDH
Язык : English
Default : Нет
Forced : Нет

Текст #3
Идентификатор : 6
Формат : UTF-8
Идентификатор кодека : S_TEXT/UTF8
Идентификатор кодека/Информация : UTF-8 Plain Text
Заголовок : SDH Colored
Язык : English
Default : Нет
Forced : Нет

Текст #4
Идентификатор : 7
Формат : UTF-8
Идентификатор кодека : S_TEXT/UTF8
Идентификатор кодека/Информация : UTF-8 Plain Text
Язык : Russian
Default : Нет
Forced : Нет

Меню
00:00:00.000 : en:
00:04:49.371 : en:
00:10:23.789 : en:
00:14:19.275 : en:
00:19:25.497 : en:
00:25:11.217 : en:
00:29:49.411 : en:
00:35:50.815 : en:
00:41:11.635 : en:
00:46:29.536 : en:
00:53:50.226 : en:
00:57:44.794 : en:
01:04:15.268 : en:
01:08:48.499 : en:
01:15:20.599 : en:
01:18:50.642 : en:
Скриншоты:




Все релизы Монстры на каникулах NNM-CLUB
Автор рипа:
Время раздачи: 24/7
[NNM-Club.ru]_Monstry.na.Kanikulah.2012.D.BDRip.mkv.torrent
 Торрент: Платиновая раздача  Зарегистрирован
 
Скачать


Примагнититься
 Зарегистрирован:   13 Янв 2013 16:51:29
 Размер:   1.46 GB  (
 Рейтинг:   4.9 (Голосов: 100)
 Поблагодарили:   383
 Проверка:   Оформление проверено модератором 13 Янв 2013 19:10:24
Как cкачать  ·  Как раздать  ·  Правильно оформить  ·  Поднять ратио!  
shumovoz
Стаж: 13 лет 11 мес.
Сообщений: 31
Ratio: 18.581
25.93%
bangladesh.gif
спасибо, заглядим)
titan12
Стаж: 15 лет
Сообщений: 125
Ratio: 21.277
Поблагодарили: 731
100%
russia.gif
мультик просто обалденный!
Топик был перенесен из форума Зарубежные Мультфильмы (HD*Rip/LQ, DVDRip, SATRip, VHSRip) в форум Архив Мультфильмов

Причина переноса: лицензия
denver7979
Показать сообщения:   
Начать новую тему   Ответить на тему    Торрент-трекер NNM-Club -> Архив торрентов -> Архив Мультфильмов Часовой пояс: GMT + 3
Страница 1 из 1